Уважаемый Гость!
Вы можете поддержать проект и зарегистрироваться у наших партнеров - онлайн-стратегия MyLands. При регистрации в игре Вы получите код, который сможете активировать после регистрации на pirat.ca и получить 1000 дублонов.

Ваш код:
05aa585945da9b20e143f2fcf2ab1f69aba65ad7
 
     

Четверо против банка / Vier gegen die Bank (Вольфганг Петерсен / Wolfgang Petersen) [2016, комедия, криминал, BDRip-AVC] Dub [iTunes]

Ответить на тему
 
Автор
Сообщение

Пост 13-Янв-2018 16:17

[Q] 

aleksey99

--Четверо против банка / Vier gegen die Bank-- Производство: Германия / Hellinger, Doll Filmproduktion, Warner Bros.
Год выпуска: 2016 г.
Жанр: комедия, криминал
Продолжительность: 01:35:58--Мировая премьера: 25 декабря 2016
Российская премьера: 7 декабря 2017, «Ракета Релизинг»--Перевод: Профессиональный (полное дублирование) [iTunes]--Режиссер: Вольфганг Петерсен / Wolfgang Petersen--В ролях: Антье Трауэ, Александра Мария Лара, Тиль Швайгер, Яна Палласке, Маттиас Швайгхефер, Клаудия Михельсен, Михаэль Хербиг, Ян Йозеф Лиферс, Фахри Огюн Ярдим, Ясмин Лорд--Описание: Актер, спортсмен и рекламный агент инвестируют все свои сбережения под хорошие проценты, но неожиданно их счета прогорают. Им остается только топить свое горе в ближайшем баре, где они встречают своего инвестиционного агента. Разгневанная троица пытается выместить зло на нем, но тот сам оказался жертвой начальства и лишился работы. Теперь у этой четверки есть выбор: смириться с ударом судьбы или спланировать и осуществить дерзкое ограбление банка, чтобы вернуть свои кровно заработанные.-- --Качество видео: BDRip-AVC
Контейнер: MKV
Видео кодек: H.264
Аудио кодек: AC3
Видео: AVC at 1731 Кбит/сек, 1056x440 (2.40:1) at 23,976 fps
Аудио: 48 kHz, AC3 Dolby Digital, 3/2 (L,C,R,l,r) + LFE ch, ~384 kbps
Cубтитры: Отсутствуют .
Общее
Уникальный идентификатор : 244501568144106666130556112589317681947 (0xB7F14A05FC61FD71B55633AB746F331B)
Полное имя : H:\Torrent2\Chetvero.Protiv.Banka.2016.RUS.BDRip.x264.mkv
Формат : Matroska
Версия формата : Version 4 / Version 2
Размер файла : 1,42 Гбайт
Продолжительность : 1 ч. 35 м.
Общий поток : 2111 Кбит/сек
Название фильма : Vier gegen die Bank (2016)
Дата кодирования : UTC 2018-01-13 07:33:17
Программа кодирования : mkvmerge v5.9.0 ('On The Loose') built on Dec 15 2012 16:39:58
Библиотека кодирования : libebml v1.3.0 + libmatroska v1.4.0
Видео
Идентификатор : 1
Формат : AVC
Формат/Информация : Advanced Video Codec
Профиль формата : [email protected]
Параметр CABAC формата : Да
Параметр ReFrames формата : 10 кадров
Идентификатор кодека : V_MPEG4/ISO/AVC
Продолжительность : 1 ч. 35 м.
Битрейт : 1731 Кбит/сек
Ширина : 1056 пикселей
Высота : 440 пикселей
Соотношение сторон : 2,40:1
Режим частоты кадров : Постоянный
Частота кадров : 23,976 кадра/сек
Цветовое пространство : YUV
Субдискретизация насыщенности : 4:2:0
Битовая глубина : 8 бит
Тип развёртки : Прогрессивная
Бит/(Пиксели*Кадры) : 0.155
Размер потока : 1,13 Гбайт (80%)
Заголовок : potroks
Библиотека кодирования : x264 core 155 r2893M b00bcaf
Настройки программы : cabac=1 / ref=10 / deblock=1:-1:-1 / analyse=0x3:0x133 / me=umh / subme=11 / psy=1 / psy_rd=1.04:0.10 / mixed_ref=1 / me_range=48 / chroma_me=1 / trellis=2 / 8x8dct=1 / cqm=0 / deadzone=21,11 / fast_pskip=0 / chroma_qp_offset=-3 / threads=9 / lookahead_threads=2 / sliced_threads=0 / nr=0 / decimate=0 / interlaced=0 / bluray_compat=0 / constrained_intra=0 / bframes=12 / b_pyramid=2 / b_adapt=2 / b_bias=0 / direct=3 / weightb=1 / open_gop=0 / weightp=2 / keyint=240 / keyint_min=23 / scenecut=40 / intra_refresh=0 / rc_lookahead=100 / rc=2pass / mbtree=0 / bitrate=1731 / ratetol=1.0 / qcomp=0.70 / qpmin=0 / qpmax=69 / qpstep=4 / cplxblur=20.0 / qblur=0.5 / vbv_maxrate=52000 / vbv_bufsize=50000 / nal_hrd=none / filler=0 / ip_ratio=1.40 / pb_ratio=1.30 / aq=1:0.80
Язык : English
Default : Да
Forced : Нет
Аудио
Идентификатор : 2
Формат : AC-3
Формат/Информация : Audio Coding 3
Расширение режима : CM (complete main)
Параметр Endianness формата : Big
Идентификатор кодека : A_AC3
Продолжительность : 1 ч. 35 м.
Вид битрейта : Постоянный
Битрейт : 384 Кбит/сек
Каналы : 6 каналов
Расположение каналов : Front: L C R, Side: L R, LFE
Частота : 48,0 КГц
Битовая глубина : 16 бит
Метод сжатия : С потерями
Размер потока : 264 Мбайт (18%)
Заголовок : Dub | DD 5.1 @ 448 kbps - iTunes
Язык : Russian
Default : Да
Forced : Нет
Меню
00:00:00.000 : en:(01)00:00:00:000
00:09:38.703 : en:(02)00:09:38:703
00:17:04.232 : en:(03)00:17:04:232
00:25:13.721 : en:(04)00:25:13:721
00:34:46.042 : en:(05)00:34:46:042
00:42:16.284 : en:(06)00:42:16:284
00:48:43.963 : en:(07)00:48:43:963
00:56:12.953 : en:(08)00:56:12:953
01:02:25.659 : en:(09)01:02:25:659
01:10:42.280 : en:(10)01:10:42:280
01:20:28.323 : en:(11)01:20:28:323
01:27:11.184 : en:(12)01:27:11:184
Трейлер
Download / Скачать

Хотите скачать бесплатно? Зарегистрируйтесь на сайте (ссылка на регистрацию). Pirat.ca - самый быстрый торрент трекер в рунете!

Как скачивать  ·   Что такое торрент  ·   Рейтинг и ограничения

wuzap00x

Юнга

Пост 13-Янв-2018 19:40 (спустя 3 часа)

[Q] 

Фильм понравился, легкая комедия, советую.
[Профиль]  [ЛС] 

Кристина119

Гроза морей

Пост 14-Янв-2018 00:32 (спустя 4 часа)

[Q] 

Что-то вроде "Уйти красиво"?
[Профиль]  [ЛС] 

vasdas

Корсар

Пост 21-Янв-2018 01:48 (спустя 7 дней)

[Q] 

лёгкое кино Мне понравилось Автору респект!!!
[Профиль]  [ЛС] 
Показать сообщения:    
Ответить на тему

Текущее время: Сегодня 03:49

Часовой пояс: GMT + 4



Вы не можете начинать темы
Вы не можете отвечать на сообщения
Вы не можете редактировать свои сообщения
Вы не можете удалять свои сообщения
Вы не можете голосовать в опросах
Вы не можете прикреплять файлы к сообщениям
Вы не можете скачивать файлы

▼ Вниз