Уважаемый Гость!
Вы можете поддержать проект и зарегистрироваться у наших партнеров - онлайн-стратегия MyLands. При регистрации в игре Вы получите код, который сможете активировать после регистрации на pirat.ca и получить 1000 дублонов.

Ваш код:
63ddbc099afdde4bfcb4e610e80c6e8b9375c65c
 
     

Три билборда на границе Эббинга, Миссури / Three Billboards Outside Ebbing, Missouri (Мартин МакДона / Martin McDonagh) [2017 г., драма, комедия, криминал, DVDScr] VO [М.Яроцкий]

Ответить на тему
 
Автор
Сообщение

Пост 13-Янв-2018 19:33

[Q] 

aleksey99

--Три билборда на границе Эббинга, Миссури / Three Billboards Outside Ebbing, Missouri-- Производство: Великобритания, США / Blueprint Pictures
Год выпуска: 2017 г.
Жанр: драма, комедия, криминал
Продолжительность: 01:55:04--Мировая премьера: 4 сентября 2017
Российская премьера: 1 февраля 2018, «Двадцатый Век Фокс СНГ»--Перевод: Любительский (одноголосый закадровый) [М.Яроцкий]--Режиссер: Мартин МакДона / Martin McDonagh--В ролях: Вуди Харрельсон, Фрэнсис МакДорманд, Калеб Лэндри Джонс, Керри Кондон, Эбби Корниш, Сэм Рокуэлл, Алехандро Барриос, Джейсон Редфорд, Даррел Бритт-Гибсон--Описание: Спустя несколько месяцев после убийства дочери Милдред Хейс преступники так и не найдены. Отчаявшаяся женщина решается на смелый шаг, арендуя на въезде в город три биллборда с посланием к авторитетному главе полиции Уильяму Уиллоуби. Когда в ситуацию оказывается втянут еще и заместитель шерифа, инфантильный маменькин сынок со склонностью к насилию, офицер Диксон, борьба между Милдред и властями города только усугубляется.-- --Качество видео: DVDScr
Контейнер: MKV
Видео кодек: XviD
Аудио кодек: AC3
Видео: 720x304, 29.970 fps, XviD, 1585 kbps, 0.242 bit/pixel
Аудио: 48 kHz, AC3 Dolby Digital, 2/0 (L,R) ch, ~192 kbps
Cубтитры: отсутствуют.
Общее
Уникальный идентификатор : 181844564983340983322768508431921127112 (0x88CDFD4246C6D762BC8AB3F0EBB51EC8)
Полное имя : H:\Torrent2\Three.Billboards.Outside.Ebbing,Missouri.2017.mkv
Формат : Matroska
Версия формата : Version 4 / Version 2
Размер файла : 1,46 Гбайт
Продолжительность : 1 ч. 55 м.
Общий поток : 1813 Кбит/сек
Дата кодирования : UTC 2018-01-12 21:04:35
Программа кодирования : mkvmerge v6.0.0 ('Coming Up For Air') built on Jan 20 2013 09:52:00
Библиотека кодирования : libebml v1.3.0 + libmatroska v1.4.0
Обложка : cover.jpg
Видео
Идентификатор : 1
Формат : MPEG-4 Visual
Профиль формата : Advanced [email protected]
Параметр BVOP формата : Да
Параметр QPel формата : Да
Параметр GMC формата : Без точки перехода
Параметр матрицы формата : Default (H.263)
Идентификатор кодека : V_MS/VFW/FOURCC / XVID
Идентификатор кодека/Подсказка : XviD
Продолжительность : 1 ч. 55 м.
Битрейт : 1585 Кбит/сек
Ширина : 720 пикселей
Высота : 304 пикселя
Соотношение сторон : 2,35:1
Режим частоты кадров : Постоянный
Частота кадров : 29,970 кадров/сек
Цветовое пространство : YUV
Субдискретизация насыщенности : 4:2:0
Битовая глубина : 8 бит
Тип развёртки : Прогрессивная
Метод сжатия : С потерями
Бит/(Пиксели*Кадры) : 0.242
Размер потока : 1,27 Гбайт (87%)
Библиотека кодирования : XviD 1.2.1 (UTC 2008-12-04)
Default : Да
Forced : Нет
Аудио
Идентификатор : 2
Формат : AC-3
Формат/Информация : Audio Coding 3
Расширение режима : CM (complete main)
Параметр Endianness формата : Big
Идентификатор кодека : A_AC3
Продолжительность : 1 ч. 55 м.
Вид битрейта : Постоянный
Битрейт : 192 Кбит/сек
Каналы : 2 канала
Расположение каналов : Front: L R
Частота : 48,0 КГц
Битовая глубина : 16 бит
Метод сжатия : С потерями
Размер потока : 158 Мбайт (11%)
Заголовок : AVO Kyberpunk
Язык : Russian
Default : Да
Forced : Нет
Трейлер
Download / Скачать

Хотите скачать бесплатно? Зарегистрируйтесь на сайте (ссылка на регистрацию). Pirat.ca - самый быстрый торрент трекер в рунете!

Как скачивать  ·   Что такое торрент  ·   Рейтинг и ограничения

Кристина119

Гроза морей

Пост 14-Янв-2018 00:29 (спустя 4 часа)

[Q] 

кто смотрел, отпишитесь...
[Профиль]  [ЛС] 

Kac

Лоцман

Пост 18-Янв-2018 20:55 (спустя 4 дня)

[Q] 

Фильм хороший :)
[Профиль]  [ЛС] 

msss

Корсар

Пост 20-Янв-2018 19:41 (спустя 1 день 22 часа)

[Q] 

Очень достойная картина. Качают ВСЕ!!!
[Профиль]  [ЛС] 

Skat.56

Легенда

452

Пост 21-Янв-2018 01:08 (спустя 5 часов)

[Q] 

Отличный фильм.

_________________
[Профиль]  [ЛС] 

ketzer

Корсар

Пост 21-Янв-2018 07:13 (спустя 6 часов)

[Q] 

Да, фильм на все 100!
[Профиль]  [ЛС] 

damhsn

Шкипер

Пост 08-Фев-2018 00:47 (спустя 17 дней)

[Q] 

Смотрится с интересом, но ничем не заканчивается, облом.
[Профиль]  [ЛС] 

sashafandey

Морской Волк

Пост 09-Фев-2018 17:02 (спустя 1 день 16 часов)

[Q] 

заебца кино!1
[Профиль]  [ЛС] 

the_lame

Флибустьер

Пост 13-Фев-2018 19:45 (спустя 4 дня)

[Q] 

Сильное произведение, правда, как выше отмечено, конец немного разочаровывает.
[Профиль]  [ЛС] 

zvezda_2s

Флибустьер

Пост 17-Фев-2018 12:44 (спустя 3 дня)

[Q] 

Значит будем посмотреть!
[Профиль]  [ЛС] 

E-RTY

Флибустьер

30

Пост 03-Мар-2018 00:16 (спустя 13 дней)

[Q] 

Все этот фильм советуют)
[Профиль]  [ЛС] 

Glife

Флибустьер

Пост 05-Мар-2018 10:01 (спустя 2 дня 9 часов)

[Q] 

... до Окара не дотянул.
Фильм размышление. Финал тоже правильный.
Разжеванное на тарелочке- плохая пища. Свои надо иметь челюсти и зубы, а то атрофируются...
[Профиль]  [ЛС] 

Artreds

Корсар

808

Пост 13-Мар-2018 13:52 (спустя 8 дней)

[Q] 

Нудный, скучный фильм с ебанутыми диалогами.

_________________

[Профиль]  [ЛС] 
Показать сообщения:    
Ответить на тему

Текущее время: Сегодня 20:36

Часовой пояс: GMT + 4



Вы не можете начинать темы
Вы не можете отвечать на сообщения
Вы не можете редактировать свои сообщения
Вы не можете удалять свои сообщения
Вы не можете голосовать в опросах
Вы не можете прикреплять файлы к сообщениям
Вы не можете скачивать файлы

▼ Вниз