Безбашенные / Renegades (Стивен Куэйл / Steven Quale) [2017 г., боевик, триллер, WEB-DLRip-AVC] Dub [iTunes] + Original (Eng) + Sub (Eng)

Ответить на тему
 
Автор
Сообщение

Пост 05-Фев-2018 10:44

[Q] 

aleksey99

--Безбашенные / Renegades--«5 морских котиков. $ 300 миллионов золотом. 1 невыполнимая миссия»-- Производство: Франция, Германия / Belga Productions, CB Films, Canal+, DCS, EuropaCorp, Studio Babelsberg
Год выпуска: 2017 г.
Жанр: боевик, триллер
Продолжительность: 01:45:36--Мировая премьера: 1 сентября 2017
Российская премьера: 5 октября 2017, «MEGOGO Distribution»
Цифровой релиз: 05 февраля 2018, «Megogo Distribution»--Перевод: Профессиональный (полное дублирование) [iTunes]
Оригинальный аудиопоток: английский--Режиссер: Стивен Куэйл / Steven Quale--В ролях: Юэн Бремнер, Сильвия Хукс, Дж.К. Симмонс, Салливан Степлтон, Димитрий Леонидас, Чарли Бьюли, Диармед Мёрта, Клеменс Шик, Джошуа Генри, Славко Собин--Описание: На дне озера охваченной войной Боснии команда спецназа ВМС США «Морские котики» находит клад — золотые слитки стоимостью более $300 млн. Миссия команды, нарушившей присягу и рискующей жизнью — поднять золото со дна озера. Для других она была бы невыполнимой, но только не для этих безбашенных парней: у них есть 10 часов, чтобы завершить задуманное.-- --Качество видео: WEB-DLRip-AVC
Контейнер: MKV
Видео кодек: AVC/H.264
Аудио кодек: AC3
Видео: x264, 1024x428 (2.40:1), 23,976 fps ~1803 kbps, 0.172 bit/pixel
Аудио 1: 48 kHz, AC3 Dolby Digital, 3/2 (L,C,R,l,r) + LFE ch, ~384 kbps RUS
Аудио 2: 48 kHz, AC3 Dolby Digital, 3/2 (L,C,R,l,r) + LFE ch, ~384 kbps ENG
Cубтитры: английские (форс).
Общее
Уникальный идентификатор : 207224276737013040997026089441373406247 (0x9BE5F1A87D0C91FB8E2EBF7133E74427)
Полное имя : H:\Torrent2\Renegades.2017.WEB-DLRip(AVC).OlLanDGroup.mkv
Формат : Matroska
Версия формата : Version 2
Размер файла : 1,90 Гбайт
Продолжительность : 1 ч. 45 м.
Общий поток : 2573 Кбит/сек
Название фильма : Renegades.2017 #TorpedoUK#
Дата кодирования : UTC 2018-02-05 01:01:22
Программа кодирования : mkvmerge v7.8.0 ('River Man') 32bit built on Apr 3 2015 12:11:22
Библиотека кодирования : libebml v1.3.1 + libmatroska v1.4.2
Обложка : Yes
Attachments : cover_land.jpg / small_cover.jpg / small_cover_land.jpg / cover.jpg
Видео
Идентификатор : 1
Формат : AVC
Формат/Информация : Advanced Video Codec
Профиль формата : [email protected]
Настройки формата : CABAC / 10 Ref Frames
Параметр CABAC формата : Да
Параметр RefFrames формата : 10 кадров
Идентификатор кодека : V_MPEG4/ISO/AVC
Продолжительность : 1 ч. 45 м.
Битрейт : 1803 Кбит/сек
Ширина : 1024 пикселя
Высота : 428 пикселей
Соотношение сторон : 2,40:1
Режим частоты кадров : Постоянный
Частота кадров : 23,976 (24000/1001) кадра/сек
Цветовое пространство : YUV
Субдискретизация насыщенности : 4:2:0
Битовая глубина : 8 бит
Тип развёртки : Прогрессивная
Бит/(Пиксели*Кадры) : 0.172
Размер потока : 1,29 Гбайт (68%)
Библиотека кодирования : x264 core 146 r2538 121396c
Настройки программы : cabac=1 / ref=10 / deblock=1:-3:-3 / analyse=0x3:0x133 / me=umh / subme=11 / psy=1 / psy_rd=1.00:0.03 / mixed_ref=1 / me_range=48 / chroma_me=1 / trellis=2 / 8x8dct=1 / cqm=0 / deadzone=21,11 / fast_pskip=1 / chroma_qp_offset=-3 / threads=6 / lookahead_threads=1 / sliced_threads=0 / nr=0 / decimate=1 / interlaced=0 / bluray_compat=0 / constrained_intra=0 / bframes=10 / b_pyramid=2 / b_adapt=2 / b_bias=0 / direct=3 / weightb=1 / open_gop=0 / weightp=2 / keyint=240 / keyint_min=23 / scenecut=40 / intra_refresh=0 / rc_lookahead=40 / rc=2pass / mbtree=0 / bitrate=1803 / ratetol=1.0 / qcomp=0.60 / qpmin=0 / qpmax=69 / qpstep=4 / cplxblur=20.0 / qblur=0.5 / vbv_maxrate=50000 / vbv_bufsize=62500 / nal_hrd=none / filler=0 / ip_ratio=1.40 / pb_ratio=1.30 / aq=1:1.00
Язык : English
Default : Да
Forced : Нет
Аудио #1
Идентификатор : 2
Формат : AC-3
Формат/Информация : Audio Coding 3
Идентификатор кодека : A_AC3
Продолжительность : 1 ч. 45 м.
Вид битрейта : Постоянный
Битрейт : 384 Кбит/сек
Каналы : 6 каналов
Расположение каналов : Front: L C R, Side: L R, LFE
Частота : 48,0 КГц
Частота кадров : 31,250 кадров/сек (1536 SPF)
Битовая глубина : 16 бит
Метод сжатия : С потерями
Размер потока : 290 Мбайт (15%)
Заголовок : iTunes
Язык : Russian
ServiceKind/String : Complete Main
Default : Да
Forced : Нет
Аудио #2
Идентификатор : 3
Формат : AC-3
Формат/Информация : Audio Coding 3
Идентификатор кодека : A_AC3
Продолжительность : 1 ч. 45 м.
Вид битрейта : Постоянный
Битрейт : 384 Кбит/сек
Каналы : 6 каналов
Расположение каналов : Front: L C R, Side: L R, LFE
Частота : 48,0 КГц
Частота кадров : 31,250 кадров/сек (1536 SPF)
Битовая глубина : 16 бит
Метод сжатия : С потерями
Размер потока : 290 Мбайт (15%)
Заголовок : Original
Язык : English
ServiceKind/String : Complete Main
Default : Нет
Forced : Нет
Текст
Идентификатор : 4
Формат : UTF-8
Идентификатор кодека : S_TEXT/UTF8
Идентификатор кодека/Информация : UTF-8 Plain Text
Заголовок : FORCED
Язык : English
Default : Нет
Forced : Нет
Меню
00:00:00.000 : en:Chapter 1
00:34:10.091 : en:Chapter 2
01:09:58.906 : en:Chapter 3
01:36:17.359 : en:Chapter 4
Трейлер
Download / Скачать

Хотите скачать бесплатно? Зарегистрируйтесь на сайте (ссылка на регистрацию). Pirat.ca - самый быстрый торрент трекер в рунете!

Как скачивать  ·   Что такое торрент  ·   Рейтинг и ограничения

fishman

Флибустьер

Пост 05-Фев-2018 20:04 (спустя 9 часов)

[Q] 

Спасибо!!! rum

_________________
|___|___|___|___|___|___|___|__|__
__|__|__|_Биться головой_|___|___|
|___|___|___|__сюда!!___|___|__|__
__|___|___|___|___|___|___|__|__
[Профиль]  [ЛС] 

alersander

Корсар

Пост 07-Фев-2018 22:47 (спустя 2 дня 2 часа)

[Q] 

Посмотрим Лови бочку
[Профиль]  [ЛС] 

AirPower

Корсар

Пост 08-Фев-2018 18:43 (спустя 19 часов)

[Q] 

Очередная чушь, не смог досмотреть, выключил на середине фильма.
[Профиль]  [ЛС] 

baltimor30

Корсар

Пост 12-Фев-2018 20:01 (спустя 4 дня)

[Q] 

По 5 бальной на 3-ку с минусом, единственный плюс, это то, что дублированный.
[Профиль]  [ЛС] 

RomanTroizk

Корсар

Пост 18-Фев-2018 22:01 (спустя 6 дней)

[Q] 

Один разок точно стоит посмотреть Мне понравилось
[Профиль]  [ЛС] 

black phantom

Штурман

Пост 20-Фев-2018 08:48 (спустя 1 день 10 часов)

[Q] 

Америкосам лишь бы что-нибудь у кого-нибуть спи..здить.
[Профиль]  [ЛС] 

SwordFish

Морской Волк

631

Пост 08-Май-2018 15:36 (спустя 2 месяца 16 дней)

[Q] 

Фильм на разок...
[Профиль]  [ЛС] 
Показать сообщения:    
Ответить на тему

Текущее время: Сегодня 16:54

Часовой пояс: GMT + 4



Вы не можете начинать темы
Вы не можете отвечать на сообщения
Вы не можете редактировать свои сообщения
Вы не можете удалять свои сообщения
Вы не можете голосовать в опросах
Вы не можете прикреплять файлы к сообщениям
Вы не можете скачивать файлы

Майнать ▼