Вижу лишь тебя / All I See Is You (Марк Форстер / Marc Forster) [2017 г., драма, детектив, BDRip-AVC] Dub [iTunes] + Sub (Rus)

Ответить на тему
 
Автор
Сообщение

Пост 05-Фев-2018 13:34

[Q] 

aleksey99

--Вижу лишь тебя / All I See Is You-- Производство: Таиланд, США / 2DUX², LINK Entertainment, SC Films International
Год выпуска: 2017 г.
Жанр: драма, детектив
Продолжительность: 01:49:55--Мировая премьера: 14 сентября 2016
Российская премьера: 7 декабря 2017, «Cinema Prestige»
Цифровой релиз: 16 января 2018, «Cinema Prestige»--Перевод: Профессиональный (полное дублирование) [iTunes]--Режиссер: Марк Форстер / Marc Forster--В ролях: Блэйк Лайвли, Джейсон Кларк, Ивонн Страховски, Ана О’Райли, Микель Фернандес, Хави Санчес, Уэс Чэтэм, Дэнни Хьюстон, Кэйтлин Орем, Стэйси Ватанапан--Описание: Джина ослепла в детстве в результате несчастного случая. Однако слепота не помешала ей выйти замуж и быть счастливой в браке. На очередном приеме у офтальмолога они с мужем узнают, что можно использовать новые методы лечения, и есть большая вероятность, что она прозреет. Любящий муж оплачивает операцию, проходит месяц, бинты сняты, и перед Джиной распахивается мир со всеми красками бытия. Девушка стремится открыть для себя то, чего раньше была лишена и что теперь кажется таким доступным. В том числе и отношения с мужчинами. Пробудившаяся сексуальность не радует ее мужа Джеймса, готового на что угодно, только бы она по-прежнему целиком и полностью зависела от него, видела бы лишь его…-- --Качество видео: BDRip-AVC
Контейнер: MKV
Видео кодек: AVC/H.264
Аудио кодек: AC3
Видео: x264, 1008x420 (2.40:1), 1455 kbps, 23,976 fps, 0.143 bit/pixel
Аудио: 48 kHz, AC3 Dolby Digital, 3/2 (L,C,R,l,r) + LFE ch, ~384 kbps
Cубтитры: русские (на песни).
Общее
Уникальный идентификатор : 246882388895298061262009305103271308137 (0xB9BBD18C97D7729EBBE46D5E0D8DAB69)
Полное имя : H:\Torrent2\Vizhu.Lish.Tebya.2016.RUS.BDRip.x264.mkv
Формат : Matroska
Версия формата : Version 4 / Version 2
Размер файла : 1,41 Гбайт
Продолжительность : 1 ч. 49 м.
Общий поток : 1831 Кбит/сек
Название фильма : All I See Is You (2016)
Дата кодирования : UTC 2018-02-05 08:23:25
Программа кодирования : mkvmerge v5.9.0 ('On The Loose') built on Dec 15 2012 16:39:58
Библиотека кодирования : libebml v1.3.0 + libmatroska v1.4.0
Видео
Идентификатор : 1
Формат : AVC
Формат/Информация : Advanced Video Codec
Профиль формата : [email protected]
Настройки формата : CABAC / 12 Ref Frames
Параметр CABAC формата : Да
Параметр RefFrames формата : 12 кадров
Идентификатор кодека : V_MPEG4/ISO/AVC
Продолжительность : 1 ч. 49 м.
Битрейт : 1455 Кбит/сек
Ширина : 1008 пикселей
Высота : 420 пикселей
Соотношение сторон : 2,40:1
Режим частоты кадров : Постоянный
Частота кадров : 23,976 (24000/1001) кадра/сек
Цветовое пространство : YUV
Субдискретизация насыщенности : 4:2:0
Битовая глубина : 8 бит
Тип развёртки : Прогрессивная
Бит/(Пиксели*Кадры) : 0.143
Размер потока : 1,08 Гбайт (77%)
Библиотека кодирования : x264 core 155 r2901M 7d0ff22
Настройки программы : cabac=1 / ref=12 / deblock=1:-1:-1 / analyse=0x3:0x131 / me=umh / subme=11 / psy=1 / psy_rd=1.00:0.05 / mixed_ref=1 / me_range=48 / chroma_me=1 / trellis=2 / 8x8dct=1 / cqm=0 / deadzone=21,11 / fast_pskip=0 / chroma_qp_offset=-3 / threads=9 / lookahead_threads=2 / sliced_threads=0 / nr=0 / decimate=0 / interlaced=0 / bluray_compat=0 / constrained_intra=0 / bframes=13 / b_pyramid=2 / b_adapt=2 / b_bias=0 / direct=3 / weightb=1 / open_gop=0 / weightp=2 / keyint=240 / keyint_min=23 / scenecut=40 / intra_refresh=0 / rc_lookahead=100 / rc=2pass / mbtree=0 / bitrate=1455 / ratetol=1.0 / qcomp=0.70 / qpmin=0 / qpmax=69 / qpstep=4 / cplxblur=20.0 / qblur=0.5 / vbv_maxrate=50000 / vbv_bufsize=50000 / nal_hrd=none / filler=0 / ip_ratio=1.40 / pb_ratio=1.30 / aq=1:0.80
Язык : English
Default : Да
Forced : Нет
Аудио
Идентификатор : 2
Формат : AC-3
Формат/Информация : Audio Coding 3
Идентификатор кодека : A_AC3
Продолжительность : 1 ч. 49 м.
Вид битрейта : Постоянный
Битрейт : 384 Кбит/сек
Каналы : 6 каналов
Расположение каналов : Front: L C R, Side: L R, LFE
Частота : 48,0 КГц
Частота кадров : 31,250 кадров/сек (1536 SPF)
Битовая глубина : 16 бит
Метод сжатия : С потерями
Размер потока : 302 Мбайт (21%)
Заголовок : Dub | DD 5.1 @ 384 kbps - iTunes
Язык : Russian
ServiceKind/String : Complete Main
Default : Да
Forced : Нет
Текст
Идентификатор : 3
Формат : UTF-8
Идентификатор кодека : S_TEXT/UTF8
Идентификатор кодека/Информация : UTF-8 Plain Text
Заголовок : Songs
Язык : Russian
Default : Да
Forced : Нет
Меню
00:00:00.000 : en:(01)00:00:00:000
00:05:16.065 : en:(02)00:05:16:065
00:10:05.645 : en:(03)00:10:05:645
00:14:42.131 : en:(04)00:14:42:131
00:19:11.859 : en:(05)00:19:11:859
00:23:30.367 : en:(06)00:23:30:367
00:30:42.507 : en:(07)00:30:42:507
00:38:01.487 : en:(08)00:38:01:487
00:41:29.236 : en:(09)00:41:29:236
00:46:59.024 : en:(10)00:46:59:024
00:52:29.980 : en:(11)00:52:29:980
00:57:11.386 : en:(12)00:57:11:386
01:02:43.301 : en:(13)01:02:43:301
01:07:55.821 : en:(14)01:07:55:821
01:13:51.593 : en:(15)01:13:51:593
01:16:58.196 : en:(16)01:16:58:196
01:21:53.158 : en:(17)01:21:53:158
01:27:12.143 : en:(18)01:27:12:143
01:35:52.912 : en:(19)01:35:52:912
01:41:26.121 : en:(20)01:41:26:121
01:49:55.005 : en:(21)01:49:55:005
Трейлер
Download / Скачать

Хотите скачать бесплатно? Зарегистрируйтесь на сайте (ссылка на регистрацию). Pirat.ca - самый быстрый торрент трекер в рунете!

Как скачивать  ·   Что такое торрент  ·   Рейтинг и ограничения

fishman

Флибустьер

Пост 05-Фев-2018 20:07 (спустя 6 часов)

[Q] 

Спасибо!!! rum

_________________
|___|___|___|___|___|___|___|__|__
__|__|__|_Биться головой_|___|___|
|___|___|___|__сюда!!___|___|__|__
__|___|___|___|___|___|___|__|__
[Профиль]  [ЛС] 

zvezda_2s

Флибустьер

Пост 06-Фев-2018 19:16 (спустя 23 часа)

[Q] 

Ну и как? Кто видел?
[Профиль]  [ЛС] 

Mustafa Sazont

Корсар

Пост 16-Май-2018 10:05 (спустя 3 месяца 9 дней)

[Q] 

Очередная лажа про женскую распущенность.
[Профиль]  [ЛС] 
Показать сообщения:    
Ответить на тему

Текущее время: Сегодня 16:33

Часовой пояс: GMT + 4



Вы не можете начинать темы
Вы не можете отвечать на сообщения
Вы не можете редактировать свои сообщения
Вы не можете удалять свои сообщения
Вы не можете голосовать в опросах
Вы не можете прикреплять файлы к сообщениям
Вы не можете скачивать файлы

Майнать ▼