Здравствуй, папа, Новый год! 2 / Daddy's Home 2 (Шон Андерс / Sean Anders) [2017 г., комедия, BDRip-AVC] Dub [iTunes] + Sub (Rus)

Ответить на тему
 
Автор
Сообщение

Пост 09-Фев-2018 15:01

[Q] 

aleksey99

--Здравствуй, папа, Новый год! 2 / Daddy's Home 2--«Чем больше папаш, тем больше проблем»-- Производство: США / Paramount Pictures, Gary Sanchez Productions, Huahua Film & Media Culture.
Год выпуска: 2017 г.
Жанр: комедия
Продолжительность: 01:39:42--Мировая премьера: 8 ноября 2017
Российская премьера: 23 ноября 2017, «Централ Партнершип»
Цифровой релиз: 08 февраля 2018, «Paramount»--Перевод: Профессиональный (полное дублирование) [iTunes]--Режиссер: Шон Андерс / Sean Anders--В ролях: Уилл Феррелл, Марк Уолберг, Мэл Гибсон, Джон Литгоу, Линда Карделлини, Алессандра Амброзио, Оуэн Ваккаро, Скарлет Эстевез, Диди Костин, Коннор Уайз--Описание: Отец и отчим, Дасти и Брэд, объединяются, чтобы организовать для своих детей идеальный рождественский праздник. Но их с горем пополам достигнутый нейтралитет оказывается под угрозой, когда к внукам приезжают олдскульный мачо-папаша Дасти и чувствительный и эмоциональный папочка Брэда. Они как нельзя кстати, чтобы превратить Рождество в кошмарный хаос.-- --Качество видео: BDRip-AVC
Контейнер: MKV
Видео кодек: AVC/H.264
Аудио кодек: AC3
Видео: x264, 960x540 (16:9), 1650 kbps, 23,976 fps, 0.133 bit/pixel
Аудио: 48 kHz, AC3 Dolby Digital, 3/2 (L,C,R,l,r) + LFE ch, ~384 kbps
Cубтитры: русские (полные + форс.)
Общее
Уникальный идентификатор : 247586311325645265432974567196429345956 (0xBA43639AC34BDD319ADA91A27A4B64A4)
Полное имя : H:\Torrent2\Zdravstvuy.Papa.Novyi.God.2.2017.RUS.BDRip.x264.mkv
Формат : Matroska
Версия формата : Version 4 / Version 2
Размер файла : 1,42 Гбайт
Продолжительность : 1 ч. 39 м.
Общий поток : 2036 Кбит/сек
Название фильма : Daddy's Home 2 (2017)
Дата кодирования : UTC 2018-02-08 09:25:26
Программа кодирования : mkvmerge v5.9.0 ('On The Loose') built on Dec 15 2012 16:39:58
Библиотека кодирования : libebml v1.3.0 + libmatroska v1.4.0
Видео
Идентификатор : 1
Формат : AVC
Формат/Информация : Advanced Video Codec
Профиль формата : [email protected]
Настройки формата : CABAC / 12 Ref Frames
Параметр CABAC формата : Да
Параметр RefFrames формата : 12 кадров
Идентификатор кодека : V_MPEG4/ISO/AVC
Продолжительность : 1 ч. 39 м.
Битрейт : 1650 Кбит/сек
Ширина : 960 пикселей
Высота : 540 пикселей
Соотношение сторон : 16:9
Режим частоты кадров : Постоянный
Частота кадров : 23,976 (24000/1001) кадра/сек
Цветовое пространство : YUV
Субдискретизация насыщенности : 4:2:0
Битовая глубина : 8 бит
Тип развёртки : Прогрессивная
Бит/(Пиксели*Кадры) : 0.133
Размер потока : 1,12 Гбайт (79%)
Библиотека кодирования : x264 core 155 r2901M 7d0ff22
Настройки программы : cabac=1 / ref=12 / deblock=1:-2:-2 / analyse=0x3:0x131 / me=umh / subme=11 / psy=1 / psy_rd=1.00:0.05 / mixed_ref=1 / me_range=48 / chroma_me=1 / trellis=2 / 8x8dct=1 / cqm=0 / deadzone=21,11 / fast_pskip=0 / chroma_qp_offset=-3 / threads=9 / lookahead_threads=2 / sliced_threads=0 / nr=0 / decimate=0 / interlaced=0 / bluray_compat=0 / constrained_intra=0 / bframes=13 / b_pyramid=2 / b_adapt=2 / b_bias=0 / direct=3 / weightb=1 / open_gop=0 / weightp=2 / keyint=240 / keyint_min=23 / scenecut=40 / intra_refresh=0 / rc_lookahead=100 / rc=2pass / mbtree=0 / bitrate=1650 / ratetol=1.0 / qcomp=0.70 / qpmin=0 / qpmax=69 / qpstep=4 / cplxblur=20.0 / qblur=0.5 / vbv_maxrate=50000 / vbv_bufsize=50000 / nal_hrd=none / filler=0 / ip_ratio=1.40 / pb_ratio=1.30 / aq=1:0.80
Язык : English
Default : Да
Forced : Нет
Аудио
Идентификатор : 2
Формат : AC-3
Формат/Информация : Audio Coding 3
Идентификатор кодека : A_AC3
Продолжительность : 1 ч. 39 м.
Вид битрейта : Постоянный
Битрейт : 384 Кбит/сек
Каналы : 6 каналов
Расположение каналов : Front: L C R, Side: L R, LFE
Частота : 48,0 КГц
Частота кадров : 31,250 кадров/сек (1536 SPF)
Битовая глубина : 16 бит
Метод сжатия : С потерями
Размер потока : 274 Мбайт (19%)
Заголовок : Dub | DD 5.1 @ 384 kbps - iTunes
Язык : Russian
ServiceKind/String : Complete Main
Default : Да
Forced : Нет
Текст #1
Идентификатор : 3
Формат : UTF-8
Идентификатор кодека : S_TEXT/UTF8
Идентификатор кодека/Информация : UTF-8 Plain Text
Заголовок : Forced
Язык : Russian
Default : Да
Forced : Нет
Текст #2
Идентификатор : 4
Формат : UTF-8
Идентификатор кодека : S_TEXT/UTF8
Идентификатор кодека/Информация : UTF-8 Plain Text
Заголовок : iTunes
Язык : Russian
Default : Нет
Forced : Нет
Меню
00:00:00.000 : :Chapter 1
00:08:08.529 : :Chapter 2
00:16:08.092 : :Chapter 3
00:21:44.052 : :Chapter 4
00:27:40.158 : :Chapter 5
00:32:47.423 : :Chapter 6
00:40:49.029 : :Chapter 7
00:47:57.165 : :Chapter 8
00:52:27.894 : :Chapter 9
01:00:08.730 : :Chapter 10
01:08:37.363 : :Chapter 11
01:15:23.101 : :Chapter 12
01:26:24.846 : :Chapter 13
01:33:34.942 : :Chapter 14
Трейлер
Download / Скачать

Хотите скачать бесплатно? Зарегистрируйтесь на сайте (ссылка на регистрацию). Pirat.ca - самый быстрый торрент трекер в рунете!

Как скачивать  ·   Что такое торрент  ·   Рейтинг и ограничения

tumparov

Корсар

Пост 10-Фев-2018 14:30 (спустя 23 часа)

[Q] 

местами улыбнуло, а в целом, обычно меня семейные фильмы прошибают иногда на слезу в конце, 38ми летний дядька сентиментальный_)) а этот чет не прошиб, концовка так вообще, попурри какое то, смотреть один раз можно Спасибо!!!
[Профиль]  [ЛС] 

black63

Шкипер

Пост 10-Фев-2018 16:19 (спустя 1 час 48 минут)

[Q] 

Спасибо!!! Посмотрим в семейном кругу
[Профиль]  [ЛС] 

moscowpan

Гроза морей

4193

Пост 10-Фев-2018 21:40 (спустя 5 часов)

[Q] 

конечно фильм на один разок, но глянем

_________________
[Профиль]  [ЛС] 

clark

Флибустьер

Пост 15-Фев-2018 01:33 (спустя 4 дня)

[Q] 

спасибо, 1 часть смешная, глянем!!!

_________________
Последним смеётся тот, кто стреляет первым.
[Профиль]  [ЛС] 

exelero07

Флибустьер

Пост 12-Мар-2018 11:54 (спустя 25 дней)

[Q] 

Позитивный, смешной фильм на вечер.
[Профиль]  [ЛС] 

Skala973

Флибустьер

Пост 13-Апр-2018 12:30 (спустя 1 месяц 1 день)

[Q] 

Да не особо и прикольный этот фильм, скорее всего, это уже переигранная комедия.
Ну актёры и сценаристы так старались, что из комедии получился постыдный фарс.
Ну хорошие актёры, да, согласен.
Но уж больно они переигрывают. Мэл Гибсон, сколько ему по фильму лет? Под 70? ему надо думать "о вечном", а он "пучок ссаных волос" себе подискивает, да ещё чтобы помоложе были.
Ну неестественно, как-то слишком притянуто.
Смотреть? Ну можно, можно конечно и посмотреть. Но желательно звук сделать потише, а глаза закрыть.
А вот за раздачу спасибо.
[Профиль]  [ЛС] 
Показать сообщения:    
Ответить на тему

Текущее время: Сегодня 16:59

Часовой пояс: GMT + 4



Вы не можете начинать темы
Вы не можете отвечать на сообщения
Вы не можете редактировать свои сообщения
Вы не можете удалять свои сообщения
Вы не можете голосовать в опросах
Вы не можете прикреплять файлы к сообщениям
Вы не можете скачивать файлы

Майнать ▼