Уважаемый Гость!
Вы можете поддержать проект и зарегистрироваться у наших партнеров - онлайн-стратегия MyLands. При регистрации в игре Вы получите код, который сможете активировать после регистрации на pirat.ca и получить 1000 дублонов.

Ваш код:
d8717323daf2ccc0074bd3e09d6a6a9748800bb9
 
     

(Power Metal) Cromonic - Time - 2017 [FLAC, image +.cue, lossless]

Ответить на тему
 
Автор
Сообщение

Пост 10-Фев-2018 14:59

[Q] 

sergej644

-Cromonic - Time--
Год издания: 2017
Страна: Sweden
Жанр: Power Metal
Продолжительность: 00:46:38-Лейбл издания: Cromonic Music
Страна-выпуска диска: Sweden
Номер по каталогу: CM001-Формат: FLAC
Битрейт аудио: Lossless
Тип рипа: image +.cue
Наличие сканов в содержимом раздачи: да
-

01. Another World (5:39)
02. Time (5:48)
03. Tale of Pain (5:20)
04. Mental Cry (4:29)
05. Prophecy (4:37)
06. Revenant (4:29)
07. Paradise (4:29)
08. The Hunt (6:49)
09. Dragonsong (4:57)
-
Код:
Exact Audio Copy V1.0 beta 6 from 9. April 2015
EAC extraction logfile from 14. June 2017, 18:02
Cromonic  / Time
Used drive  : Optiarc DVD RW AD-7700S   Adapter: 1  ID: 1
Read mode               : Secure
Utilize accurate stream : Yes
Defeat audio cache      : Yes
Make use of C2 pointers : No
Read offset correction                      : 48
Overread into Lead-In and Lead-Out          : No
Fill up missing offset samples with silence : Yes
Delete leading and trailing silent blocks   : No
Null samples used in CRC calculations       : Yes
Used interface                              : Native Win32 interface for Win NT & 2000
Used output format              : User Defined Encoder
Selected bitrate                : 1024 kBit/s
Quality                         : High
Add ID3 tag                     : No
Command line compressor         : C:\Program Files (x86)\Exact Audio Copy\FLAC\FLAC.EXE
Additional command line options :  -V -8 -T "Date=%year%" -T "Genre=%genre%" %source%
TOC of the extracted CD
     Track |   Start  |  Length  | Start sector | End sector
    ---------------------------------------------------------
        1  |  0:00.00 |  5:39.06 |         0    |    25430
        2  |  5:39.06 |  5:48.30 |     25431    |    51560
        3  | 11:27.36 |  5:20.37 |     51561    |    75597
        4  | 16:47.73 |  4:28.51 |     75598    |    95748
        5  | 21:16.49 |  4:37.13 |     95749    |   116536
        6  | 25:53.62 |  4:29.30 |    116537    |   136741
        7  | 30:23.17 |  4:28.72 |    136742    |   156913
        8  | 34:52.14 |  6:48.64 |    156914    |   187577
        9  | 41:41.03 |  4:57.07 |    187578    |   209859
Range status and errors
Selected range
     Filename C:\Users\Олег\Desktop\Cromonic  - Time.wav
     Peak level 97.5 %
     Extraction speed 4.6 X
     Range quality 100.0 %
     Test CRC 4C67D47B
     Copy CRC 4C67D47B
     Copy OK
No errors occurred
AccurateRip summary
Track  1  not present in database
Track  2  not present in database
Track  3  not present in database
Track  4  not present in database
Track  5  not present in database
Track  6  not present in database
Track  7  not present in database
Track  8  not present in database
Track  9  not present in database
None of the tracks are present in the AccurateRip database
End of status report
Код:
REM DATE 2017
REM DISCID 760AEE09
REM COMMENT "ExactAudioCopy v1.0b6"
PERFORMER "Cromonic "
TITLE "Time"
FILE "Cromonic  - Time.flac" WAVE
  TRACK 01 AUDIO
    TITLE "Another World"
    PERFORMER "Cromonic "
    ISRC SE5O41700101
    INDEX 01 00:00:00
  TRACK 02 AUDIO
    TITLE "Time"
    PERFORMER "Cromonic "
    ISRC SE5O41700102
    INDEX 01 05:39:06
  TRACK 03 AUDIO
    TITLE "Tale of Pain"
    PERFORMER "Cromonic "
    ISRC SE5O41700103
    INDEX 01 11:27:36
  TRACK 04 AUDIO
    TITLE "Mental Cry"
    PERFORMER "Cromonic "
    ISRC SE5O41700104
    INDEX 01 16:47:73
  TRACK 05 AUDIO
    TITLE "Prophecy"
    PERFORMER "Cromonic "
    ISRC SE5O41700105
    INDEX 01 21:16:49
  TRACK 06 AUDIO
    TITLE "Revenant"
    PERFORMER "Cromonic "
    ISRC SE5O41700106
    INDEX 01 25:53:62
  TRACK 07 AUDIO
    TITLE "Paradise"
    PERFORMER "Cromonic "
    ISRC SE5O41700107
    INDEX 01 30:23:17
  TRACK 08 AUDIO
    TITLE "The Hunt"
    PERFORMER "Cromonic "
    ISRC SE5O41700108
    INDEX 01 34:52:14
  TRACK 09 AUDIO
    TITLE "Dragonsong"
    PERFORMER "Cromonic "
    ISRC SE5O41700109
    INDEX 01 41:41:03
--
Download / Скачать

Хотите скачать бесплатно? Зарегистрируйтесь на сайте (ссылка на регистрацию). Pirat.ca - самый быстрый торрент трекер в рунете!

Как скачивать  ·   Что такое торрент  ·   Рейтинг и ограничения

Показать сообщения:    
Ответить на тему

Текущее время: Сегодня 22:46

Часовой пояс: GMT + 4



Вы не можете начинать темы
Вы не можете отвечать на сообщения
Вы не можете редактировать свои сообщения
Вы не можете удалять свои сообщения
Вы не можете голосовать в опросах
Вы не можете прикреплять файлы к сообщениям
Вы не можете скачивать файлы

▼ Вниз