Уважаемый Гость!
Вы можете поддержать проект и зарегистрироваться у наших партнеров - онлайн-стратегия MyLands. При регистрации в игре Вы получите код, который сможете активировать после регистрации на pirat.ca и получить 1000 дублонов.

Ваш код:
d8717323daf2ccc0074bd3e09d6a6a9748800bb9
 
     

(Melodic Heavy Metal) Axxis - Retrolution - 2017 [FLAC, image +.cue, lossless]

Ответить на тему
 
Автор
Сообщение

Пост 10-Фев-2018 15:01

[Q] 

sergej644

-Axxis - Retrolution--
Год издания: 2017
Страна: Germany (Dortmund, North Rhine-Westphalia)
Жанр: Melodic Heavy Metal
Продолжительность: 00:48:30-Лейбл издания: Phonotraxx Publishing
Страна-выпуска диска: Germany
Номер по каталогу: PHP 201701 -Формат: FLAC
Битрейт аудио: Lossless
Тип рипа: image +.cue
Наличие сканов в содержимом раздачи: да
-

01. Burn! Burn! Burn! (3:02)
02. All My Friends Are Liars (3:55)
03. Dream Chaser (3:19)
04. Burn Down Your House (3:59)
05. Rock The Night (3:29)
06. The World Is Mine (3:48)
07. Do It Better (3:27)
08. Queen Of The Wind (3:46)
09. Seven Devils (2:34)
10. This Is My Day (3:11)
11. Somebody Died At The Party (3:19)
12. Heavy Metal Brother (3:14)
13. Welcome To My Nightmare (3:54)
14. Demons Dare To Stay (Bonus Track) (3:33)
-
Код:
Exact Audio Copy V1.3 from 2. September 2016
EAC extraction logfile from 6. March 2017, 19:34
Axxis / Retrolution
Used drive  : ATAPI   iHAS122   W   Adapter: 2  ID: 0
Read mode               : Secure
Utilize accurate stream : Yes
Defeat audio cache      : Yes
Make use of C2 pointers : No
Read offset correction                      : 48
Overread into Lead-In and Lead-Out          : No
Fill up missing offset samples with silence : Yes
Delete leading and trailing silent blocks   : No
Null samples used in CRC calculations       : Yes
Used interface                              : Installed external ASPI interface
Used output format              : User Defined Encoder
Selected bitrate                : 1024 kBit/s
Quality                         : High
Add ID3 tag                     : No
Command line compressor         : C:\Program Files\FLAC\flac.exe
Additional command line options : -V -8 -T "Date=%year%" -T "Genre=%genre%" -T"COMMENT=Ripped by  Ilijan - ilko" -8 -V %source%
TOC of the extracted CD
     Track |   Start  |  Length  | Start sector | End sector
    ---------------------------------------------------------
        1  |  0:00.00 |  3:02.05 |         0    |    13654
        2  |  3:02.05 |  3:55.28 |     13655    |    31307
        3  |  6:57.33 |  3:19.15 |     31308    |    46247
        4  | 10:16.48 |  3:58.44 |     46248    |    64141
        5  | 14:15.17 |  3:28.39 |     64142    |    79780
        6  | 17:43.56 |  3:48.27 |     79781    |    96907
        7  | 21:32.08 |  3:27.25 |     96908    |   112457
        8  | 24:59.33 |  3:45.74 |    112458    |   129406
        9  | 28:45.32 |  2:33.49 |    129407    |   140930
       10  | 31:19.06 |  3:11.22 |    140931    |   155277
       11  | 34:30.28 |  3:18.65 |    155278    |   170192
       12  | 37:49.18 |  3:13.39 |    170193    |   184706
       13  | 41:02.57 |  3:53.71 |    184707    |   202252
       14  | 44:56.53 |  3:33.34 |    202253    |   218261
Range status and errors
Selected range
     Filename D:\ilko\Axxis - Retrolution.wav
     Peak level 98.8 %
     Extraction speed 4.1 X
     Range quality 100.0 %
     Test CRC 67BFD950
     Copy CRC 67BFD950
     Copy OK
No errors occurred
AccurateRip summary
Track  1  accurately ripped (confidence 2)  [63FC2CE6]  (AR v2)
Track  2  accurately ripped (confidence 2)  [CDED0CCA]  (AR v2)
Track  3  accurately ripped (confidence 2)  [01B21A17]  (AR v2)
Track  4  accurately ripped (confidence 2)  [8892E813]  (AR v2)
Track  5  accurately ripped (confidence 2)  [847DE0E4]  (AR v2)
Track  6  accurately ripped (confidence 2)  [96CEB3BD]  (AR v2)
Track  7  accurately ripped (confidence 2)  [79FE9F47]  (AR v2)
Track  8  accurately ripped (confidence 2)  [487CF17E]  (AR v2)
Track  9  accurately ripped (confidence 2)  [DD529492]  (AR v2)
Track 10  accurately ripped (confidence 2)  [65CFB18E]  (AR v2)
Track 11  accurately ripped (confidence 2)  [976D9BEB]  (AR v2)
Track 12  accurately ripped (confidence 2)  [58C2AF1D]  (AR v2)
Track 13  accurately ripped (confidence 2)  [5F8E70C1]  (AR v2)
Track 14  accurately ripped (confidence 2)  [72B17987]  (AR v2)
All tracks accurately ripped
End of status report
Код:
REM GENRE "Heavy Metal"
REM DATE 2017
REM DISCID C60B5E0E
REM COMMENT "ExactAudioCopy v1.3"
PERFORMER "Axxis"
TITLE "Retrolution"
FILE "Axxis - Retrolution.flac" WAVE
  TRACK 01 AUDIO
    TITLE "Burn! Burn! Burn!"
    PERFORMER "Axxis"
    INDEX 01 00:00:00
  TRACK 02 AUDIO
    TITLE "All My Friends Are Liars"
    PERFORMER "Axxis"
    INDEX 01 03:02:05
  TRACK 03 AUDIO
    TITLE "Dream Chaser"
    PERFORMER "Axxis"
    INDEX 01 06:57:33
  TRACK 04 AUDIO
    TITLE "Burn Down Your House"
    PERFORMER "Axxis"
    INDEX 00 10:15:19
    INDEX 01 10:16:48
  TRACK 05 AUDIO
    TITLE "Rock The Night"
    PERFORMER "Axxis"
    INDEX 01 14:15:17
  TRACK 06 AUDIO
    TITLE "The World Is Mine"
    PERFORMER "Axxis"
    INDEX 01 17:43:56
  TRACK 07 AUDIO
    TITLE "Do It Better"
    PERFORMER "Axxis"
    INDEX 00 21:30:51
    INDEX 01 21:32:08
  TRACK 08 AUDIO
    TITLE "Queen Of The Wind"
    PERFORMER "Axxis"
    INDEX 00 24:58:27
    INDEX 01 24:59:33
  TRACK 09 AUDIO
    TITLE "Seven Devils"
    PERFORMER "Axxis"
    INDEX 00 28:44:17
    INDEX 01 28:45:32
  TRACK 10 AUDIO
    TITLE "This Is My Day"
    PERFORMER "Axxis"
    INDEX 00 31:17:47
    INDEX 01 31:19:06
  TRACK 11 AUDIO
    TITLE "Somebody Died At The Party"
    PERFORMER "Axxis"
    INDEX 01 34:30:28
  TRACK 12 AUDIO
    TITLE "Heavy Metal Brother"
    PERFORMER "Axxis"
    INDEX 00 37:47:24
    INDEX 01 37:49:18
  TRACK 13 AUDIO
    TITLE "Welcome To My Nightmare"
    PERFORMER "Axxis"
    INDEX 01 41:02:57
  TRACK 14 AUDIO
    TITLE "Demons Dare To Stay (Bonus Track)"
    PERFORMER "Axxis"
    INDEX 00 44:52:73
    INDEX 01 44:56:53
--
Download / Скачать

Хотите скачать бесплатно? Зарегистрируйтесь на сайте (ссылка на регистрацию). Pirat.ca - самый быстрый торрент трекер в рунете!

Как скачивать  ·   Что такое торрент  ·   Рейтинг и ограничения

Показать сообщения:    
Ответить на тему

Текущее время: Сегодня 22:44

Часовой пояс: GMT + 4



Вы не можете начинать темы
Вы не можете отвечать на сообщения
Вы не можете редактировать свои сообщения
Вы не можете удалять свои сообщения
Вы не можете голосовать в опросах
Вы не можете прикреплять файлы к сообщениям
Вы не можете скачивать файлы

▼ Вниз