Уважаемый Гость!
Вы можете поддержать проект и зарегистрироваться у наших партнеров - онлайн-стратегия MyLands. При регистрации в игре Вы получите код, который сможете активировать после регистрации на pirat.ca и получить 1000 дублонов.

Ваш код:
d8717323daf2ccc0074bd3e09d6a6a9748800bb9
 
     

(Power Metal) InnerWish - Innerwish - 2016 [FLAC, image +.cue, lossless]

Ответить на тему
 
Автор
Сообщение

Пост 10-Фев-2018 15:01

[Q] 

sergej644

-InnerWish - Innerwish--
Год издания: 2016
Страна: Greece (Athens, Attica)
Жанр: Power Metal
Продолжительность: 01:07:40-Лейбл издания: Ulterium Records
Страна-выпуска диска: Sweden
Номер по каталогу: ULTCD034-Формат: FLAC
Битрейт аудио: Lossless
Тип рипа: image +.cue
Наличие сканов в содержимом раздачи: да
-

01. Roll the Dice (4:21)
02. Broken (6:02)
03. Modern Babylon (4:39)
04. Machines of Fear (4:50)
05. Needles in My Mind (5:45)
06. My World on Fire (4:27)
07. Rain of a Thousand Years (6:36)
08. Serenity (4:55)
09. Sins of the Past (5:22)
10. Through My Eyes (5:37)
11. Zero Ground (4:48)
12. Cross the Line (4:45)
13. Tame the Seven Seas (5:33)
-
Код:
Exact Audio Copy V1.1 from 23. June 2015
EAC extraction logfile from 16. April 2016, 2:07
InnerWish / Innerwish
Used drive  : ATAPI   iHAS122   W   Adapter: 2  ID: 0
Read mode               : Secure
Utilize accurate stream : Yes
Defeat audio cache      : Yes
Make use of C2 pointers : No
Read offset correction                      : 48
Overread into Lead-In and Lead-Out          : No
Fill up missing offset samples with silence : Yes
Delete leading and trailing silent blocks   : No
Null samples used in CRC calculations       : Yes
Used interface                              : Installed external ASPI interface
Used output format              : User Defined Encoder
Selected bitrate                : 1024 kBit/s
Quality                         : High
Add ID3 tag                     : No
Command line compressor         : C:\Program Files\FLAC\flac.exe
Additional command line options : -V -8 -T "Date=%year%" -T "Genre=%genre%" -T"COMMENT=Ripped by  Ilijan" -8 -V %source%
TOC of the extracted CD
     Track |   Start  |  Length  | Start sector | End sector
    ---------------------------------------------------------
        1  |  0:00.00 |  4:20.64 |         0    |    19563
        2  |  4:20.64 |  6:01.63 |     19564    |    46701
        3  | 10:22.52 |  4:39.12 |     46702    |    67638
        4  | 15:01.64 |  4:49.56 |     67639    |    89369
        5  | 19:51.45 |  5:45.20 |     89370    |   115264
        6  | 25:36.65 |  4:26.71 |    115265    |   135285
        7  | 30:03.61 |  6:35.57 |    135286    |   164967
        8  | 36:39.43 |  4:54.55 |    164968    |   187072
        9  | 41:34.23 |  5:21.43 |    187073    |   211190
       10  | 46:55.66 |  5:37.37 |    211191    |   236502
       11  | 52:33.28 |  4:48.23 |    236503    |   258125
       12  | 57:21.51 |  4:45.27 |    258126    |   279527
       13  | 62:07.03 |  5:33.23 |    279528    |   304525
Range status and errors
Selected range
     Filename D:\ilко\InnerWish - Innerwish.wav
     Peak level 100.0 %
     Extraction speed 4.2 X
     Range quality 99.9 %
     Test CRC 7BB2EAA2
     Copy CRC 7BB2EAA2
     Copy OK
No errors occurred
AccurateRip summary
Track  1  not present in database
Track  2  not present in database
Track  3  not present in database
Track  4  not present in database
Track  5  not present in database
Track  6  not present in database
Track  7  not present in database
Track  8  not present in database
Track  9  not present in database
Track 10  not present in database
Track 11  not present in database
Track 12  not present in database
Track 13  not present in database
None of the tracks are present in the AccurateRip database
End of status report
Код:
REM GENRE "Power Metal"
REM DATE 2016
REM DISCID AE0FDC0D
REM COMMENT "ExactAudioCopy v1.1"
PERFORMER "InnerWish"
TITLE "Innerwish"
FILE "InnerWish - Innerwish.flac" WAVE
  TRACK 01 AUDIO
    TITLE "Roll the Dice"
    PERFORMER "InnerWish"
    INDEX 01 00:00:00
  TRACK 02 AUDIO
    TITLE "Broken"
    PERFORMER "InnerWish"
    INDEX 00 04:19:34
    INDEX 01 04:20:64
  TRACK 03 AUDIO
    TITLE "Modern Babylon"
    PERFORMER "InnerWish"
    INDEX 00 10:21:30
    INDEX 01 10:22:52
  TRACK 04 AUDIO
    TITLE "Machines of Fear"
    PERFORMER "InnerWish"
    INDEX 00 15:00:00
    INDEX 01 15:01:64
  TRACK 05 AUDIO
    TITLE "Needles in My Mind"
    PERFORMER "InnerWish"
    INDEX 00 19:49:52
    INDEX 01 19:51:45
  TRACK 06 AUDIO
    TITLE "My World on Fire"
    PERFORMER "InnerWish"
    INDEX 00 25:35:12
    INDEX 01 25:36:65
  TRACK 07 AUDIO
    TITLE "Rain of a Thousand Years"
    PERFORMER "InnerWish"
    INDEX 00 30:01:73
    INDEX 01 30:03:61
  TRACK 08 AUDIO
    TITLE "Serenity"
    PERFORMER "InnerWish"
    INDEX 00 36:37:65
    INDEX 01 36:39:43
  TRACK 09 AUDIO
    TITLE "Sins of the Past"
    PERFORMER "InnerWish"
    INDEX 00 41:32:37
    INDEX 01 41:34:23
  TRACK 10 AUDIO
    TITLE "Through My Eyes"
    PERFORMER "InnerWish"
    INDEX 00 46:53:73
    INDEX 01 46:55:66
  TRACK 11 AUDIO
    TITLE "Zero Ground"
    PERFORMER "InnerWish"
    INDEX 00 52:31:52
    INDEX 01 52:33:28
  TRACK 12 AUDIO
    TITLE "Cross the Line"
    PERFORMER "InnerWish"
    INDEX 00 57:19:62
    INDEX 01 57:21:51
  TRACK 13 AUDIO
    TITLE "Tame the Seven Seas"
    PERFORMER "InnerWish"
    INDEX 00 62:05:44
    INDEX 01 62:07:03
George Eikosipentakis - Vocals
Antonis Mazarakis - Bass
Thimios Krikos - Guitars
Manolis Tsigos - Guitars
Fragiskos Samoilis - Drums
Georgios Georgiou - Keyboards
-https://www.youtube.com/watch?v=mjRZCq01VSA
--
Download / Скачать

Хотите скачать бесплатно? Зарегистрируйтесь на сайте (ссылка на регистрацию). Pirat.ca - самый быстрый торрент трекер в рунете!

Как скачивать  ·   Что такое торрент  ·   Рейтинг и ограничения

Показать сообщения:    
Ответить на тему

Текущее время: Сегодня 22:43

Часовой пояс: GMT + 4



Вы не можете начинать темы
Вы не можете отвечать на сообщения
Вы не можете редактировать свои сообщения
Вы не можете удалять свои сообщения
Вы не можете голосовать в опросах
Вы не можете прикреплять файлы к сообщениям
Вы не можете скачивать файлы

▼ Вниз