Уважаемый Гость!
Вы можете поддержать проект и зарегистрироваться у наших партнеров - онлайн-стратегия MyLands. При регистрации в игре Вы получите код, который сможете активировать после регистрации на pirat.ca и получить 1000 дублонов.

Ваш код:
d8717323daf2ccc0074bd3e09d6a6a9748800bb9
 
     

Счастливого дня смерти / Happy Death Day (Кристофер Лэндон / Christopher Landon) [2017 г., ужасы, триллер, детектив, комедия, BDRip-AVC] Dub [iTunes]

Ответить на тему
 
Автор
Сообщение

Пост 10-Фев-2018 16:46

[Q] 

aleksey99

--Счастливого дня смерти / Happy Death Day--«Проснись. Отпразднуй день рождения. Умри. Повтори. Снова и снова...»-- Производство: США / Blumhouse Productions, Digital Riot Media, Vesuvius Productions
Год выпуска: 2017 г.
Жанр: ужасы, триллер, детектив, комедия
Продолжительность: 01:36:11--Мировая премьера: 7 октября 2017
Российская премьера: 7 декабря 2017, «UPI»
Цифровой релиз: 01 февраля 2018, «Universal»--Перевод: Профессиональный (полное дублирование) [iTunes]--Режиссер: Кристофер Лэндон / Christopher Landon--В ролях: Джессика Рот, Израэль Бруссар, Руби Модин, Лаура Клифтон, Джейсон Бэйл, Роб Мелло, Рэйчел Мэттьюз, Ремзи Андерсон, Брэди Льюис, Фи Ву, Тени Интриаго, Блейн Керн, Кариэлла Смит, Джимми Гонсалес, Билли Слотер--Описание: Каждый в универе мечтал попасть на её день рождения, но праздник был безнадежно испорчен незнакомцем в маске, убившим виновницу торжества. Однако судьба преподнесла имениннице леденящий душу подарок — бесконечный запас жизней. И теперь у девушки появился шанс вычислить своего убийцу, ведь этот день будет повторяться снова и снова…-- --Качество видео: BDRip-AVC
Контейнер: MKV
Видео кодек: AVC/H.264
Аудио кодек: AC3
Видео: x264, 1032x432 (2.40:1), 1725 kbps, 23,976 fps, 0.161 bit/pixel
Аудио: 48 kHz, AC3 Dolby Digital, 3/2 (L,C,R,l,r) + LFE ch, ~384 kbps
Cубтитры: отсутствуют.
бщее
Уникальный идентификатор : 173588587665813070542340630232208239626 (0x8297F2266EF6333FA4558BA330FFEC0A)
Полное имя : H:\Torrent2\Schastlivogo.Dnya.Smerti.2017.RUS.BDRip.x264.mkv
Формат : Matroska
Версия формата : Version 4 / Version 2
Размер файла : 1,42 Гбайт
Продолжительность : 1 ч. 36 м.
Режим общего битрейта : Переменный
Общий поток : 2111 Кбит/сек
Название фильма : Happy Death Day (2017)
Дата кодирования : UTC 2018-02-01 14:50:47
Программа кодирования : mkvmerge v5.9.0 ('On The Loose') built on Dec 15 2012 16:39:58
Библиотека кодирования : libebml v1.3.0 + libmatroska v1.4.0
Видео
Идентификатор : 1
Формат : AVC
Формат/Информация : Advanced Video Codec
Профиль формата : [email protected]
Настройки формата : CABAC / 5 Ref Frames
Параметр CABAC формата : Да
Параметр RefFrames формата : 5 кадров
Идентификатор кодека : V_MPEG4/ISO/AVC
Продолжительность : 1 ч. 36 м.
Вид битрейта : Переменный
Битрейт : 1725 Кбит/сек
Максимальный битрейт : 50,0 Мбит/сек
Ширина : 1032 пикселя
Высота : 432 пикселя
Соотношение сторон : 2,40:1
Режим частоты кадров : Постоянный
Частота кадров : 23,976 (24000/1001) кадра/сек
Цветовое пространство : YUV
Субдискретизация насыщенности : 4:2:0
Битовая глубина : 8 бит
Тип развёртки : Прогрессивная
Бит/(Пиксели*Кадры) : 0.161
Размер потока : 1,13 Гбайт (80%)
Заголовок : potroks
Библиотека кодирования : x264 core 155 r2893M b00bcaf
Настройки программы : cabac=1 / ref=6 / deblock=1:-1:-1 / analyse=0x3:0x132 / me=umh / subme=11 / psy=1 / psy_rd=1.00:0.05 / mixed_ref=1
/ me_range=48 / chroma_me=1 / trellis=2 / 8x8dct=1 / cqm=0 / deadzone=21,11 / fast_pskip=0 / chroma_qp_offset=-3 / threads=9 / lookahead_threads=1 /
sliced_threads=0 / nr=0 / decimate=0 / interlaced=0 / bluray_compat=1 / constrained_intra=0 / bframes=3 / b_pyramid=1 / b_adapt=2 / b_bias=0 / direct=3 /
weightb=1 / open_gop=0 / weightp=1 / keyint=240 / keyint_min=1 / scenecut=40 / intra_refresh=0 / rc_lookahead=100 / rc=2pass / mbtree=0 / bitrate=1725 /
ratetol=1.0 / qcomp=0.70 / qpmin=0 / qpmax=69 / qpstep=4 / cplxblur=20.0 / qblur=0.5 / vbv_maxrate=50000 / vbv_bufsize=50000 / nal_hrd=vbr / filler=0 /
ip_ratio=1.40 / pb_ratio=1.30 / aq=1:0.80
Язык : English
Default : Да
Forced : Нет
Аудио
Идентификатор : 2
Формат : AC-3
Формат/Информация : Audio Coding 3
Идентификатор кодека : A_AC3
Продолжительность : 1 ч. 36 м.
Вид битрейта : Постоянный
Битрейт : 384 Кбит/сек
Каналы : 6 каналов
Расположение каналов : Front: L C R, Side: L R, LFE
Частота : 48,0 КГц
Частота кадров : 31,250 кадров/сек (1536 SPF)
Битовая глубина : 16 бит
Метод сжатия : С потерями
Размер потока : 264 Мбайт (18%)
Заголовок : Dub | DD 5.1 @ 384 kbps - iTunes
Язык : Russian
ServiceKind/String : Complete Main
Default : Да
Forced : Нет
Меню
00:00:00.000 : :Chapter 01
00:04:54.460 : :Chapter 02
00:10:26.000 : :Chapter 03
00:14:10.683 : :Chapter 04
00:21:46.722 : :Chapter 05
00:25:08.798 : :Chapter 06
00:29:37.859 : :Chapter 07
00:33:09.320 : :Chapter 08
00:37:50.142 : :Chapter 09
00:41:46.170 : :Chapter 10
00:44:54.191 : :Chapter 11
00:53:07.934 : :Chapter 12
00:57:28.361 : :Chapter 13
01:00:18.448 : :Chapter 14
01:07:41.557 : :Chapter 15
01:12:16.290 : :Chapter 16
01:16:35.090 : :Chapter 17
01:21:17.080 : :Chapter 18
01:27:13.645 : :Chapter 19
01:30:24.168 : :Chapter 20
Трейлер
Download / Скачать

Хотите скачать бесплатно? Зарегистрируйтесь на сайте (ссылка на регистрацию). Pirat.ca - самый быстрый торрент трекер в рунете!

Как скачивать  ·   Что такое торрент  ·   Рейтинг и ограничения

lightmaster

Гроза морей

Пост 10-Фев-2018 17:34 (спустя 48 минут)

[Q] 

Хоршее кино, интересная трактовка Дня сурка...
[Профиль]  [ЛС] 

EDVAR

Легенда

Пост 10-Фев-2018 18:32 (спустя 57 минут)

[Q] 

Интересный фильм! Спасибо!!!

_________________
"Как других судить-вы судьи.Как себя-вы адвокаты"
[Профиль]  [ЛС] 

baltimor30

Корсар

Пост 12-Фев-2018 22:14 (спустя 2 дня 3 часа)

[Q] 

Еще не досмотрел, но на 1 раз уж точно
[Профиль]  [ЛС] 

hevard

Гроза морей

2159

Пост 13-Фев-2018 01:47 (спустя 3 часа)

[Q] 

818935Еще не досмотрел, но на 1 раз уж точно
Потому что, уже знаешь, что убийца - садовник?

_________________
-Я старый пират и не знаю слов лицензионного соглашения...
[Профиль]  [ЛС] 

the_lame

Флибустьер

Пост 13-Фев-2018 19:50 (спустя 18 часов)

[Q] 

Пойдет на раз мозг расслабить.
[Профиль]  [ЛС] 

Barskavkaz

Корсар

Пост 15-Фев-2018 01:29 (спустя 1 день 5 часов)

[Q] 

на разочек под пивко)

_________________
Д.Тк
[Профиль]  [ЛС] 

левка

Корсар

Пост 16-Фев-2018 21:49 (спустя 1 день 20 часов)

[Q] 

aleksey99, Автору респект!!! спасибо глянем!!!
[Профиль]  [ЛС] 

zvezda_2s

Флибустьер

Пост 17-Фев-2018 12:13 (спустя 14 часов)

[Q] 

По ходу точно день сурка, а еще точнее недавно смотрел что то и инопланетянами связано, как главного героя постоянно при высадке десанта убивали.
[Профиль]  [ЛС] 

Mollchun

Корсар

2068

Пост 17-Фев-2018 13:08 (спустя 55 минут)

[Q] 

Можно посмотреть, только ощущение незаконченности осталось...Хоть намек, почему все это происходило с героиней, наверно мать давала шанс измениться...
[Профиль]  [ЛС] 

RomanTroizk

Морской Волк

Пост 19-Фев-2018 21:58 (спустя 2 дня 8 часов)

[Q] 

Советую посмотреть!!! Нормальный фильм. От ужасов в нем мало что есть. Всем качать!!!
[Профиль]  [ЛС] 
Показать сообщения:    
Ответить на тему

Текущее время: Сегодня 22:43

Часовой пояс: GMT + 4



Вы не можете начинать темы
Вы не можете отвечать на сообщения
Вы не можете редактировать свои сообщения
Вы не можете удалять свои сообщения
Вы не можете голосовать в опросах
Вы не можете прикреплять файлы к сообщениям
Вы не можете скачивать файлы

▼ Вниз