Уважаемый Гость!
Вы можете поддержать проект и зарегистрироваться у наших партнеров - онлайн-стратегия MyLands. При регистрации в игре Вы получите код, который сможете активировать после регистрации на pirat.ca и получить 1000 дублонов.

Ваш код:
d8717323daf2ccc0074bd3e09d6a6a9748800bb9
 
     

Восставший из ада: Приговор / Hellraiser: Judgment (Гэри Дж. Танниклифф / Gary J. Tunnicliffe) [2018 г., ужасы, DVDRip] DVO [HiWay Grope]

Ответить на тему
 
Автор
Сообщение

Пост 10-Фев-2018 17:46

[Q] 

aleksey99

--Восставший из ада: Приговор / Hellraiser: Judgment--«Evil seeks evil»-- Производство: США / Dimension Films
Год выпуска: 2018 г.
Жанр: ужасы
Продолжительность: 01:21:40--Мировая премьера: 13 февраля 2018--Перевод: Любительский (двухголосый закадровый) [HiWay Grope]--Режиссер: Гэри Дж. Танниклифф / Gary J. Tunnicliffe--В ролях: Рэнди Уэйн, Хэзер Лэнгенкэмп, Риган Уоллес, Алексис Харрис, Джон Гулагер, Пол Т. Тейлор, Майк Дж. Риган, Дэймон Карни, Молли Никки Андерсон, Мэри Кэтрин Брайант--Описание: Детективы Шон и Дэвид Картеры расследует дело о жутких серийных убийствах. Объединив усилия с другим детективом, Кристин Эджертон, они следуют за убийцей всё дальше и дальше в лабиринт ужаса, которому нет места в мире живых. Чем глубже они опускаются по спирали в преисподнюю, тем явственнее понимают, что они клюнули не на ту наживку. Похоже, сенобиты ждут вовсе не жертв маньяка.-- --Качество видео: DVDRip
Контейнер: AVI
Видео кодек: XviD
Аудио кодек: AC3
Видео: 720x400 (1.80:1), 23.976 fps, XviD build 73 ~2045 kbps avg, 0.30 bit/pixel
Аудио: 48 kHz, AC3 Dolby Digital, 3/2 (L,C,R,l,r) + LFE ch, ~384 kbps
Cубтитры: отсутствуют.
Общее
Полное имя : H:\p13\Hellraiser.Judgment.2018.DVDRip.HiWayGrope.avi
Формат : AVI
Формат/Информация : Audio Video Interleave
Размер файла : 1,39 Гбайт
Продолжительность : 1 ч. 21 м.
Общий поток : 2439 Кбит/сек
Программа кодирования : VirtualDubMod 1.5.10.3 (build 2550/release)
Библиотека кодирования : VirtualDubMod build 2550/release
Видео
Идентификатор : 0
Формат : MPEG-4 Visual
Профиль формата : Advanced [email protected]
Настройки формата : BVOP1
Параметр BVOP формата : 1
Параметр QPel формата : Нет
Параметр GMC формата : Без точки перехода
Параметр матрицы формата : Default (MPEG)
Идентификатор кодека : XVID
Идентификатор кодека/Подсказка : XviD
Продолжительность : 1 ч. 21 м.
Битрейт : 2045 Кбит/сек
Ширина : 720 пикселей
Высота : 400 пикселей
Соотношение сторон : 16:9
Частота кадров : 23,976 (24000/1001) кадра/сек
Частота кадров в оригинале : 23,976 (23976/1000) кадра/сек
Цветовое пространство : YUV
Субдискретизация насыщенности : 4:2:0
Битовая глубина : 8 бит
Тип развёртки : Прогрессивная
Метод сжатия : С потерями
Бит/(Пиксели*Кадры) : 0.296
Размер потока : 1,17 Гбайт (84%)
Библиотека кодирования : XviD 73
Аудио
Идентификатор : 1
Формат : AC-3
Формат/Информация : Audio Coding 3
Идентификатор кодека : 2000
Продолжительность : 1 ч. 21 м.
Вид битрейта : Постоянный
Битрейт : 384 Кбит/сек
Каналы : 6 каналов
Расположение каналов : Front: L C R, Side: L R, LFE
Частота : 48,0 КГц
Частота кадров : 31,250 кадров/сек (1536 SPF)
Битовая глубина : 16 бит
Метод сжатия : С потерями
Размер потока : 224 Мбайт (16%)
Выравнивание : Разделение по промежуткам
Продолжительность промежутка : 42 мс. (1,00 видеокадр)
Время предзагрузки промежутка : 500 мс.
ServiceKind/String : Complete Main
Трейлер
Download / Скачать

Хотите скачать бесплатно? Зарегистрируйтесь на сайте (ссылка на регистрацию). Pirat.ca - самый быстрый торрент трекер в рунете!

Как скачивать  ·   Что такое торрент  ·   Рейтинг и ограничения

terranova

Штурман

Пост 10-Фев-2018 18:35 (спустя 48 минут)

[Q] 

И как, круто?!
[Профиль]  [ЛС] 

Doctor Obnoxius

Шкипер

Пост 10-Фев-2018 19:25 (спустя 50 минут)

[Q] 

Шикарно, господа, шикарно! Ремейк на старенькие добрые ужастики. Посмотрим, как реализована идея. Вот только вопрос: это сиквел или самостоятельное, альтернативное продолжение?
[Профиль]  [ЛС] 

eugenea49

Морской Волк

Пост 10-Фев-2018 19:50 (спустя 24 минуты)

[Q] 

Даже на рейтинг и отзывы смотреть не буду. Качаю и бочка!
[Профиль]  [ЛС] 

sanches76

Штурман

Пост 10-Фев-2018 20:52 (спустя 1 час 1 минута)

[Q] 

Большое спасибо! Я фанат Восставших, смотрю однозначно!
[Профиль]  [ЛС] 

VKValiant

Лоцман

Пост 10-Фев-2018 22:59 (спустя 2 часа 7 минут)

[Q] 

Будет интересно.... качаю

_________________
Мебель и мебельные фасады на заказ по инивидуальныи размерам
https://mebeon-m.ru/
[Профиль]  [ЛС] 

fishman

Флибустьер

Пост 10-Фев-2018 23:30 (спустя 31 минута)

[Q] 

Спасибо!!! rum

_________________
|___|___|___|___|___|___|___|__|__
__|__|__|_Биться головой_|___|___|
|___|___|___|__сюда!!___|___|__|__
__|___|___|___|___|___|___|__|__
[Профиль]  [ЛС] 

litti

Флибустьер

Пост 12-Фев-2018 15:19 (спустя 1 день 15 часов)

[Q] 

Pinhead снова в деле...
Ждёмс в качестве.

_________________
Маньяком быть ты не обязан,
но сексуальным должен быть...
[Профиль]  [ЛС] 

MAXYAK

Корсар

251

Пост 12-Фев-2018 16:09 (спустя 50 минут)

[Q] 

Дага Бредли нет-не качаем как и прошлые поделки под Пинхэда!

_________________
[Профиль]  [ЛС] 

Кристина119

Гроза морей

Пост 12-Фев-2018 17:43 (спустя 1 час 34 минуты)

[Q] 

Спасибо, качаем Лови бочку
[Профиль]  [ЛС] 

Daar

Пост 13-Фев-2018 21:56 (спустя 1 день 4 часа)

[Q] 

Ну и какие отзывы? Я еще по молодости помню после просмотра было страшно спать с выключенным светом :)
Лови бочку
[Профиль]  [ЛС] 

zvezda_2s

Флибустьер

Пост 17-Фев-2018 12:10 (спустя 3 дня)

[Q] 

Тоже интересно услышать смотревших.
[Профиль]  [ЛС] 

Sticher78

Шкипер

Пост Вчера 02:39 (спустя 3 дня)

[Q] 

Иметь, треш-то какой!
!Андря писал(а):

Не ругайтесь.
[Профиль]  [ЛС] 

oper73

Морской Волк

Пост Сегодня 21:16 (спустя 1 день 18 часов)

[Q] 

Как очередная серия для фанатов сойдет. Но с первыми тремя-пятью сериями конечно сравнивать не надо. Чортики интересные, сделаны неплохо, сюжет какой-никикой есть. Но это не Клайв Баркер и не Энтони Хикокс к сожалению. Да и без Дага Бредли Пинхед не родной. Но для встряски воспоминаний, а может даже как сигнал к пересмотру первых шедевров нормалды.
[Профиль]  [ЛС] 
Показать сообщения:    
Ответить на тему

Текущее время: Сегодня 22:45

Часовой пояс: GMT + 4



Вы не можете начинать темы
Вы не можете отвечать на сообщения
Вы не можете редактировать свои сообщения
Вы не можете удалять свои сообщения
Вы не можете голосовать в опросах
Вы не можете прикреплять файлы к сообщениям
Вы не можете скачивать файлы

▼ Вниз