Лига справедливости / Justice League (Зак Снайдер / Zack Snyder) [2017 г., фантастика, фэнтези, боевик, приключения, WEB-DLRip] Dub [iTunes] + Sub (Rus)

Ответить на тему
 
Автор
Сообщение

Пост 14-Фев-2018 08:21

[Q] 

aleksey99

--Лига справедливости / Justice League--«Нельзя спасти мир в одиночку»-- Производство: США / Atlas Entertainment, Cruel & Unusual Films, DC Comics, DC Entertainment, Dune Entertainment, Lensbern Productions, Warner Bros.
Год выпуска: 2017 г.
Жанр: фантастика, фэнтези, боевик, приключения
Продолжительность: 01:59:59--Мировая премьера: 13 ноября 2017
Российская премьера: 16 ноября 2017, «Каро-Премьер»
Цифровой релиз: 14 февраля 2018, «Warner Bros.»--Перевод: Профессиональный (полное дублирование) [iTunes]--Режиссер: Зак Снайдер / Zack Snyder--В ролях: Галь Гадот, Робин Райт, Джейсон Момоа, Конни Нильсен, Эми Адамс, Бен Аффлек, Эзра Миллер, Эмбер Хёрд, Генри Кавилл, Дайан Лэйн--Описание: Брюс Уэйн, вдохновленный самопожертвованием Супермена, вновь обретает веру в человечество. Он заручается поддержкой новой союзницы, Дианы Принс, чтобы сразиться с еще более могущественным противником. Бэтмен и Чудо-Женщина быстро набирают команду сверхлюдей для борьбы с пробудившейся угрозой. Но несмотря на уникальный состав отряда супергероев — Бэтмен, Чудо-Женщина, Аквамэн, Киборг и Флэш, — быть может, спасать планету от вторжения катастрофических масштабов уже слишком поздно.-- --Качество видео: WEB-DLRip
Контейнер: AVI
Видео кодек: XviD
Аудио кодек: AC3
Видео: 720x400 (1.80:1), 23.976 fps, XviD build 50 ~2053 kbps avg, 0.30 bit/pixel
Аудио: 48 kHz, AC3 Dolby Digital, 3/2 (L,C,R,l,r) + LFE ch, ~384 kbps
Cубтитры: Русские форсированные (отдельно) .
Общее
Полное имя : H:\Torrent2\Justice.League.2017.WEB-DLRip.2.05Gb\Justice.League.2017.WEB-DLRip.2.05Gb.avi
Формат : AVI
Формат/Информация : Audio Video Interleave
Профиль формата : OpenDML
Размер файла : 2,05 Гбайт
Продолжительность : 1 ч. 59 м.
Общий поток : 2449 Кбит/сек
Программа кодирования : VirtualDubMod 1.5.10.2 (build 2540/release)
Библиотека кодирования : VirtualDubMod build 2540/release
Видео
Идентификатор : 0
Формат : MPEG-4 Visual
Профиль формата : Advanced [email protected]
Настройки формата : BVOP2
Параметр BVOP формата : 2
Параметр QPel формата : Нет
Параметр GMC формата : Без точки перехода
Параметр матрицы формата : Default (MPEG)
Идентификатор кодека : XVID
Идентификатор кодека/Подсказка : XviD
Продолжительность : 1 ч. 59 м.
Битрейт : 2053 Кбит/сек
Ширина : 720 пикселей
Высота : 400 пикселей
Соотношение сторон : 16:9
Частота кадров : 23,976 (24000/1001) кадра/сек
Цветовое пространство : YUV
Субдискретизация насыщенности : 4:2:0
Битовая глубина : 8 бит
Тип развёртки : Прогрессивная
Метод сжатия : С потерями
Бит/(Пиксели*Кадры) : 0.297
Размер потока : 1,72 Гбайт (84%)
Библиотека кодирования : XviD 1.2.1 (UTC 2008-12-04)
Аудио
Идентификатор : 1
Формат : AC-3
Формат/Информация : Audio Coding 3
Идентификатор кодека : 2000
Продолжительность : 1 ч. 59 м.
Вид битрейта : Постоянный
Битрейт : 384 Кбит/сек
Каналы : 6 каналов
Расположение каналов : Front: L C R, Side: L R, LFE
Частота : 48,0 КГц
Частота кадров : 31,250 кадров/сек (1536 SPF)
Битовая глубина : 16 бит
Метод сжатия : С потерями
Размер потока : 330 Мбайт (16%)
Выравнивание : Разделение по промежуткам
Продолжительность промежутка : 42 мс. (1,00 видеокадр)
Время предзагрузки промежутка : 500 мс.
ServiceKind/String : Complete Main
Общее
Полное имя : H:\Torrent2\Justice.League.2017.WEB-DLRip.2.05Gb\Justice.League.2017.WEB-DLRip.2.05Gb.srt
Формат : SubRip
Размер файла : 1,44 Кбайт
Текст
Формат : SubRip
Метод сжатия : Без потерь
Трейлер
Download / Скачать

Хотите скачать бесплатно? Зарегистрируйтесь на сайте (ссылка на регистрацию). Pirat.ca - самый быстрый торрент трекер в рунете!

Как скачивать  ·   Что такое торрент  ·   Рейтинг и ограничения

Алeкс

Корсар

95

Пост 14-Фев-2018 09:00 (спустя 39 минут)

[Q] 

спасибо за раздачу :)
[Профиль]  [ЛС] 

Массарадж

Морской Волк

Пост 14-Фев-2018 20:55 (спустя 11 часов)

[Q] 

не понимаю смысла в раздаче, если уже выложили видео в качестве: WEB-DL 1080p

_________________
[Профиль]  [ЛС] 

WorldCount

Морской Волк

1

Пост 15-Фев-2018 02:52 (спустя 5 часов)

[Q] 

819016не понимаю смысла в раздаче, если уже выложили видео в качестве: WEB-DL 1080p
Мб смысл этой раздачи в том, что не все хотят смотреть этот высер в HD? Не?
[Профиль]  [ЛС] 

левка

Корсар

Пост 16-Фев-2018 22:29 (спустя 1 день 19 часов)

[Q] 

aleksey99, Автору респект!!!
[Профиль]  [ЛС] 

zvezda_2s

Флибустьер

Пост 17-Фев-2018 12:09 (спустя 13 часов)

[Q] 

А само произведение как?
[Профиль]  [ЛС] 

redfield

Морской Волк

Пост 21-Фев-2018 00:05 (спустя 3 дня)

[Q] 

Марвел, каждый день на них нападает какой-то гад....
[Профиль]  [ЛС] 

WorldCount

Морской Волк

1

Пост 23-Фев-2018 16:00 (спустя 2 дня 15 часов)

[Q] 

819482Марвел, каждый день на них нападает какой-то гад....
Это DC...
[Профиль]  [ЛС] 

clark

Флибустьер

Пост 23-Фев-2018 23:06 (спустя 7 часов)

[Q] 

зачет глянем спасибо!!!

_________________
Последним смеётся тот, кто стреляет первым.
[Профиль]  [ЛС] 

straHH1k

Штурман

Пост 26-Фев-2018 23:04 (спустя 2 дня 23 часа)

[Q] 

819482Марвел, каждый день на них нападает какой-то гад....
Не путайте Марвел и DC, у DC пока только высеры и получаются. Это пока не смотрел, может и изменю свое мнение.
[Профиль]  [ЛС] 

andreiex

Морской Волк

Пост 07-Апр-2018 14:34 (спустя 1 месяц 8 дней)

[Q] 

Сижу и гадаю - смотрел я это уже или нет... Это тут должен быть синий чувак с камнями? Уже просто каша в голове от мешанины каких-то невероятных "супергероев". Пока не буду качать, есть подозрение, что уже не последняя серия.
[Профиль]  [ЛС] 

lexaspirit

Пост 30-Июн-2018 14:28 (спустя 2 месяца 22 дня)

[Q] 

Очень понравился. К просмотру рекомендую. За раздачу респект

_________________
-------------------- ----------------------
[Профиль]  [ЛС] 

exelero07

Гроза морей

Пост 19-Июл-2018 20:57 (спустя 19 дней)

[Q] 

от марвел луше получается
[Профиль]  [ЛС] 

Victorsalata

Флибустьер

Пост 26-Июл-2018 15:03 (спустя 6 дней)

[Q] 

Посмотрю, спасибо.
[Профиль]  [ЛС] 
Показать сообщения:    
Ответить на тему

Текущее время: Сегодня 14:24

Часовой пояс: GMT + 4



Вы не можете начинать темы
Вы не можете отвечать на сообщения
Вы не можете редактировать свои сообщения
Вы не можете удалять свои сообщения
Вы не можете голосовать в опросах
Вы не можете прикреплять файлы к сообщениям
Вы не можете скачивать файлы

Майнать ▼