Уважаемый Гость!
Вы можете поддержать проект и зарегистрироваться у наших партнеров - онлайн-стратегия MyLands. При регистрации в игре Вы получите код, который сможете активировать после регистрации на pirat.ca и получить 1000 дублонов.

Ваш код:
a326abf88a160642f216f12e9aa6217c2ab57b9c
 
     

Прометей / Prometheus (Ридли Скотт / Ridley Scott) [2012 г., фантастика, ужасы, боевик, BDRip, 720p] Dub

Ответить на тему
 
Автор
Сообщение

Пост 14-Фев-2018 23:29

[Q] 

D_Ex

Морской Волк

-Прометей / Prometheus-- Производство: USA, 20th Century Fox
Год выпуска: 2012 г.
Жанр: фантастика, ужасы, боевик
Продолжительность: 2:03:46
Российская премьера: 30 мая 2012
Дата выхода Blu-Ray: 4 октября
Перевод: Профессиональный (полное дублирование)
Режиссёр: Ридли Скотт / Ridley Scott-В ролях: Нуми Рапас, Майкл Фассбендер, Шарлиз Терон, Гай Пирс, Идрис Эльба-Описание: В поисках сакрального знания группа ученых отправляется в самые темные и неизведанные чертоги вселенной. Именно там, в отдаленных мирах, находясь на пределе своих умственных и физических возможностей, им предстоит вступить в безжалостную схватку за будущее всего человечества.-
Качество видео: BDRip
Контейнер: AVI
Стандарт разрешения: 720p
Видео кодек: XviD
Аудио кодек: MP3
Видео: 1280x534 pixels, 3840 kbps, 23.976 fps, 0.234 bits/pixel
Аудио: 210 kbps, 2 channels, 48 kHz
Cубтитры: отсутствуют
General
Complete name : D:\Rip\Prometheus\Prometheus.avi
Format : AVI
Format/Info : Audio Video Interleave
Format profile : OpenDML
File size : 3.51 GiB
Duration : 2 h 3 min
Overall bit rate mode : Variable
Overall bit rate : 4 063 kb/s
Writing library : VirtualDub build 35491/release
Video
ID : 0
Format : MPEG-4 Visual
Format profile : Advanced [email protected]
Format settings, BVOP : 1
Format settings, QPel : No
Format settings, GMC : No warppoints
Format settings, Matrix : Default (MPEG)
Muxing mode : Packed bitstream
Codec ID : XVID
Codec ID/Hint : XviD
Duration : 2 h 3 min
Bit rate : 3 840 kb/s
Width : 1 280 pixels
Height : 534 pixels
Display aspect ratio : 2.40:1
Frame rate : 23.976 (24000/1001) FPS
Color space : YUV
Chroma subsampling : 4:2:0
Bit depth : 8 bits
Scan type : Progressive
Compression mode : Lossy
Bits/(Pixel*Frame) : 0.234
Stream size : 3.32 GiB (94%)
Writing library : XviD 65
Audio
ID : 1
Format : MPEG Audio
Format version : Version 1
Format profile : Layer 3
Mode : Joint stereo
Codec ID : 55
Codec ID/Hint : MP3
Duration : 2 h 3 min
Bit rate mode : Variable
Bit rate : 210 kb/s
Minimum bit rate : 32.0 kb/s
Channel(s) : 2 channels
Sampling rate : 48.0 kHz
Compression mode : Lossy
Stream size : 186 MiB (5%)
Alignment : Aligned on interleaves
Interleave, duration : 24 ms (0.58 video frame)
Interleave, preload duration : 105 ms
Writing library : LAME3.96r
Encoding settings : -m j -V 0 -q 0 -lowpass 19.5 --vbr-old -b 32
Download / Скачать

Хотите скачать бесплатно? Зарегистрируйтесь на сайте (ссылка на регистрацию). Pirat.ca - самый быстрый торрент трекер в рунете!

Как скачивать  ·   Что такое торрент  ·   Рейтинг и ограничения

Показать сообщения:    
Ответить на тему

Текущее время: Сегодня 02:04

Часовой пояс: GMT + 4



Вы не можете начинать темы
Вы не можете отвечать на сообщения
Вы не можете редактировать свои сообщения
Вы не можете удалять свои сообщения
Вы не можете голосовать в опросах
Вы не можете прикреплять файлы к сообщениям
Вы не можете скачивать файлы

▼ Вниз