Звёздные врата: Истоки / Stargate Origins / Сезон: 1 / Серии: 1-10 из 10 (Мерседес Морган / Mercedes Bryce Morgan) [2018, США, фантастика, фэнтези, боевик, пр, WEB-DL 1080p] MVO (LostFilm) + Original (Eng)

Ответить на тему
 
Автор
Сообщение

Пост 19-Фев-2018 00:22

[Q] 

kugesan


Звёздные врата: Истоки / Stargate Origins
- Страна: США
Год выпуска: 2018
Жанр: фантастика, фэнтези, боевик
Продолжительность: ~ 00:10:00 серия-Перевод: Профессиональный (многоголосый закадровый) LostFilm-Премьера (мир): 15 февраля 2018-Режиссер: Мерседес Морган / Mercedes Bryce Morgan
В главных ролях: Элли Галл, Коннор Триннир, Шван Аладдин, Филип Александер, Салом Азизи, Мишель Джубили Гонсалес, Линкольн Хопп, Сара Навратил-Описание фильма:
Главной действующей героиней приквела станет молодая Кэтрин Лэнгфорд, дочь профессора археологии Пола Лэнгфорда, которая в детстве помогла найти Звездные врата и в течение нескольких десятилетий пыталась выяснить, как заставить их работать. Кэтрин предстоит совершить неожиданное путешествие в целях разгадки тайны, лежащей за Звездными вратами, и спасения мира от невообразимого мрака.- -Качество видео: WEB-DL 1080p
Формат: MKV
Видеокодек: AVC
Аудиокодек: AC-3
Видео: MPEG-4 AVC, 1920 x 960 [16:9], 23.976 fps, ~ 3364 Kbps
Аудио Rus: AC-3 , 48 kHz, 2 ch, 384 Kbps |LostFilm|
Аудио Eng: AC-3 , 48 kHz, 2 ch, 384 Kbps |Original|
Субтитры: русские, английские (отдельным файлом)
Реклама: отсутствует
- -
Общее
Уникальный идентификатор : 317343806062897930475730209660428099153 (0xEEBE31A1DF7920B938B39E18662C1E51)
Полное имя : E:\_Сериалы\Звездные Врата Истоки\Stargate.Origins.S01.1080p.WEB-DLRip.rus.eng.LostFilm\Stargate.Origins.S01E01.1080p.WEB-DLRip.rus.eng.LostFilm.mkv
Формат : Matroska
Версия формата : Version 4 / Version 2
Размер файла : 299 Мбайт
Продолжительность : 10 м. 6 с.
Режим общего битрейта : Постоянный
Общий поток : 4134 Кбит/сек
Дата кодирования : UTC 2018-02-18 17:39:50
Программа кодирования : mkvmerge v20.0.0 ('I Am The Sun') 64-bit
Библиотека кодирования : libebml v1.3.5 + libmatroska v1.4.8
Видео
Идентификатор : 1
Формат : AVC
Формат/Информация : Advanced Video Codec
Профиль формата : Baseline@L4
Настройки формата : 1 Ref Frames
Параметр CABAC формата : Нет
Параметр RefFrames формата : 1 кадр
Идентификатор кодека : V_MPEG4/ISO/AVC
Продолжительность : 10 м. 5 с.
Вид битрейта : Постоянный
Битрейт : 3364 Кбит/сек
Номинальный битрейт : 3600 Кбит/сек
Ширина : 1920 пикселей
Высота : 960 пикселей
Соотношение сторон : 2,000
Режим частоты кадров : Постоянный
Частота кадров : 23,976 (24000/1001) кадра/сек
Стандарт вещания : NTSC
Цветовое пространство : YUV
Субдискретизация насыщенности : 4:2:0
Битовая глубина : 8 бит
Тип развёртки : Прогрессивная
Бит/(Пиксели*Кадры) : 0.076
Размер потока : 243 Мбайт (81%)
Default : Да
Forced : Нет
Цветовой диапазон : Limited
Основные цвета : BT.709
Характеристики трансфера : BT.709
Коэффициенты матрицы : BT.709
Аудио #1
Идентификатор : 2
Формат : AC-3
Формат/Информация : Audio Coding 3
Идентификатор кодека : A_AC3
Продолжительность : 10 м. 5 с.
Вид битрейта : Постоянный
Битрейт : 384 Кбит/сек
Каналы : 2 канала
Расположение каналов : Front: L R
Частота : 48,0 КГц
Частота кадров : 31,250 кадров/сек (1536 SPF)
Битовая глубина : 16 бит
Метод сжатия : С потерями
Размер потока : 27,7 Мбайт (9%)
ServiceKind/String : Complete Main
Default : Да
Forced : Нет
Аудио #2
Идентификатор : 3
Формат : AC-3
Формат/Информация : Audio Coding 3
Идентификатор кодека : A_AC3
Продолжительность : 10 м. 6 с.
Вид битрейта : Постоянный
Битрейт : 384 Кбит/сек
Каналы : 2 канала
Расположение каналов : Front: L R
Частота : 48,0 КГц
Частота кадров : 31,250 кадров/сек (1536 SPF)
Битовая глубина : 16 бит
Метод сжатия : С потерями
Размер потока : 27,7 Мбайт (9%)
ServiceKind/String : Complete Main
Default : Нет
Forced : Нет
-
-
Раздача ведётся путём добавления новых серий; при каждом добавлении создаётся новый торрент.
Чтобы начать докачку новой серии, пользователям необходимо сделать следующее:
1. остановить скачивание,
2. удалить старый торрент у себя из клиента (старые серии удалять не надо),
3. скачать новый торрент и запустить его у себя в клиенте вместо старого, при этом указать клиенту путь в старую папку, куда и должно происходить скачивание новых серий.
Ваш клиент при этом должен произвести хеширование (проверку) старой папки (если не производит сам - помогите ему сделать это), и будет докачивать только те серии которых у вас ещё нет. Старые серии при этом не удаляются, а продолжают раздаваться!
Eсли вы уже удалили старые серии, то предотвратить повторную закачку старых серий можно, отжав галочку в соответствующих местах при запуске нового торрента. По возможности, желательно не удалять старые серии как можно дольше, чтобы релизёр не столько продолжал раздавать старые серии, а смог сконцентрироваться на новых.
Совет для тех, кто не хочет ждать перехеширования:
Создайте ещё одну папку рядом с папкой сериала (рядом, а не в ней!!!). Каждую новую серию после удачной загрузки копируйте в новую папку так чтобы ваша основная папка всегда была пуста. Когда ваш новый торрент предложит вам закачать все файлы, выберете только последнюю. Для сидирования же укажите адрес новой папки.
Как закачать отдельный файл из торрента или докачать ранее пропущенные файлы торрента!
-
1. Открыть торрент
2. Снять галки с тех файлов торрента, которые мы не хотим закачивать. Оставляем только на нужных нам файлах (файле).
3. Нажать О.К.
В клиенте utorrent
Инструкция
1) Открыть торрент

2) Снять галки с тех файлов торрента, которые мы не хотим закачивать:
* либо вручную, снимая с каждого файла галку( скрин №1)
* либо, нажав кнопку "Снять метки (Select None)", сняв сразу со всех файлов(скрин №2)
№1

№2

Оставляем только на нужных нам файлах (файле).

3)Нажать О.К
-Приятного просмотра!!!
Download / Скачать

Хотите скачать бесплатно? Зарегистрируйтесь на сайте (ссылка на регистрацию). Pirat.ca - самый быстрый торрент трекер в рунете!

Как скачивать  ·   Что такое торрент  ·   Рейтинг и ограничения



Последний раз редактировалось: kugesan (2018-03-14 19:08), всего редактировалось 2 раз(а)

VKValiant

Лоцман

Пост 19-Фев-2018 00:35 (спустя 13 минут)

[Q] 

Что за бреееед!!!!!???? Сериал с сериями по 10 минут.......
[Профиль]  [ЛС] 

zvezda_2s

Флибустьер

Пост 19-Фев-2018 20:50 (спустя 20 часов)

[Q] 

Действительно - прикольно!
[Профиль]  [ЛС] 

nomad2000

Морской Волк

Пост 20-Фев-2018 20:49 (спустя 23 часа)

[Q] 

Забавно. Получается микрометражка))) Такого еще не видел.
[Профиль]  [ЛС] 

jofrei53

Флибустьер

Пост 22-Фев-2018 13:36 (спустя 1 день 16 часов)

[Q] 

Спасибо! Оригинально... Заинтересовало, глянем... Автору респект!!! Лови бочку
[Профиль]  [ЛС] 

Region-89

Легенда

552

Пост 17-Мар-2018 00:12 (спустя 22 дня)

[Q] 

о! весь сезон! теперь можно и скачать ag

_________________
[Профиль]  [ЛС] 
Показать сообщения:    
Ответить на тему

Текущее время: Сегодня 20:38

Часовой пояс: GMT + 4



Вы не можете начинать темы
Вы не можете отвечать на сообщения
Вы не можете редактировать свои сообщения
Вы не можете удалять свои сообщения
Вы не можете голосовать в опросах
Вы не можете прикреплять файлы к сообщениям
Вы не можете скачивать файлы

Майнать ▼