Тор: Рагнарёк / Thor: Ragnarok (Тайка Вайтити / Taika Waititi) [2017 г., фантастика, боевик, комедия, приключения, BDRip-AVC] Dub [iTunes] + Original (Eng) + Sub (Rus, Eng)

Ответить на тему
 
Автор
Сообщение

Пост 23-Фев-2018 09:53

[Q] 

aleksey99

--Тор: Рагнарёк / Thor: Ragnarok--«No Hammer. No Problem»-- Производство: США / Marvel Entertainment, Marvel Studios Inc., Walt Disney Pictures
Год выпуска: 2017 г.
Жанр: фантастика, боевик, комедия, приключения
Продолжительность: 02:10:45--Мировая премьера: 10 октября 2017
Российская премьера: 2 ноября 2017, «WDSSPR»
Цифровой релиз: 13 февраля 2018, «Уолт Дисней Компани СНГ»
Дата выхода DVD: 27 марта 2018, «Уолт Дисней Компани СНГ»
Дата выхода Blu-Ray: 27 марта 2018, «Уолт Дисней Компани СНГ»--Перевод: Профессиональный (полное дублирование) [iTunes]
Оригинальный аудиопоток: английский--Режиссер: Тайка Вайтити / Taika Waititi--В ролях: Крис Хемсворт, Том Хиддлстон, Идрис Эльба, Энтони Хопкинс, Кейт Бланшетт, Тесса Томпсон, Джефф Голдблюм, Карл Урбан, Марк Руффало, Бенедикт Камбербэтч--Описание: Вернувшись в Асгард в поисках таинственного врага, ведущего охоту на Камни Бесконечности, Тор обнаруживает, что действия его брата Локи, захватившего трон Асгарда, привели к приближению наиболее страшного события — Рагнарёка. По легенде, это ознаменует последнюю битву Асгарда, последствием которой станет его полное уничтожение. В попытке предотвратить это событие, Тору предстоит прибегнуть к помощи своего товарища из Мстителей — Халка. Вместе, им предстоит столкнуться лицом к лицу со злейшим врагом всех девяти миров — огненным демоном Суртуром, целью которого является исполнение пророчества о Рагнарёке и уничтожение девяти миров.-- --Качество видео: BDRip-AVC
Контейнер: MKV
Видео кодек: AVC/H.264
Аудио кодек: AC3
Видео: x264, 1024x428 (2.40:1), 23.976 fps, 2102 Kbps, 0.200 bit/pixel
Аудио 1: 48 kHz, AC3 Dolby Digital, 3/2 (L,C,R,l,r) + LFE ch, ~384 kbps RUS
Аудио 2: 48 kHz, AC3 Dolby Digital, 3/2 (L,C,R,l,r) + LFE ch, ~448 kbps ENG
Cубтитры: русские, английские.
Общее
Уникальный идентификатор : 202808500903535100580276699903576748654 (0x98937F19BF9B6E6085B2FC91AA23B26E)
Полное имя : H:\Torrent2\Thor.Ragnarok.2017.BDRip.AVC.mkv
Формат : Matroska
Версия формата : Version 4 / Version 2
Размер файла : 2,68 Гбайт
Продолжительность : 2 ч. 10 м.
Общий поток : 2932 Кбит/сек
Дата кодирования : UTC 2018-02-23 05:37:34
Программа кодирования : mkvmerge v8.6.0 ('A Place In Your World') 64bit
Библиотека кодирования : libebml v1.3.3 + libmatroska v1.4.4
Видео
Идентификатор : 1
Формат : AVC
Формат/Информация : Advanced Video Codec
Профиль формата : [email protected]
Настройки формата : CABAC / 13 Ref Frames
Параметр CABAC формата : Да
Параметр RefFrames формата : 13 кадров
Идентификатор кодека : V_MPEG4/ISO/AVC
Продолжительность : 2 ч. 10 м.
Битрейт : 2102 Кбит/сек
Ширина : 1024 пикселя
Высота : 428 пикселей
Соотношение сторон : 2,40:1
Режим частоты кадров : Постоянный
Частота кадров : 23,976 (23976/1000) кадра/сек
Цветовое пространство : YUV
Субдискретизация насыщенности : 4:2:0
Битовая глубина : 8 бит
Тип развёртки : Прогрессивная
Бит/(Пиксели*Кадры) : 0.200
Размер потока : 1,92 Гбайт (72%)
Заголовок : Enigma
Библиотека кодирования : x264 core 152 r2851 ba24899
Настройки программы : cabac=1 / ref=13 / deblock=1:-3:-3 / analyse=0x3:0x113 / me=umh / subme=10 / psy=1 / psy_rd=1.00:0.05 / mixed_ref=1 / me_range=32 / chroma_me=1 / trellis=2 / 8x8dct=1 / cqm=0 / deadzone=21,11 / fast_pskip=0 / chroma_qp_offset=-3 / threads=12 / lookahead_threads=3 / sliced_threads=0 / nr=0 / decimate=0 / interlaced=0 / bluray_compat=0 / constrained_intra=0 / bframes=12 / b_pyramid=2 / b_adapt=2 / b_bias=0 / direct=3 / weightb=1 / open_gop=0 / weightp=2 / keyint=240 / keyint_min=23 / scenecut=40 / intra_refresh=0 / rc_lookahead=40 / rc=2pass / mbtree=0 / bitrate=2102 / ratetol=1.0 / qcomp=0.60 / qpmin=0 / qpmax=51 / qpstep=4 / cplxblur=20.0 / qblur=0.5 / vbv_maxrate=50000 / vbv_bufsize=62500 / nal_hrd=none / filler=0 / ip_ratio=1.40 / pb_ratio=1.30 / aq=3:0.90
Язык : English
Default : Да
Forced : Нет
Цветовой диапазон : Limited
Основные цвета : BT.709
Характеристики трансфера : BT.709
Коэффициенты матрицы : BT.709
Аудио #1
Идентификатор : 2
Формат : AC-3
Формат/Информация : Audio Coding 3
Идентификатор кодека : A_AC3
Продолжительность : 2 ч. 10 м.
Вид битрейта : Постоянный
Битрейт : 384 Кбит/сек
Каналы : 6 каналов
Расположение каналов : Front: L C R, Side: L R, LFE
Частота : 48,0 КГц
Частота кадров : 31,250 кадров/сек (1536 SPF)
Битовая глубина : 16 бит
Метод сжатия : С потерями
Размер потока : 359 Мбайт (13%)
Заголовок : iTunes
Язык : Russian
ServiceKind/String : Complete Main
Default : Да
Forced : Нет
Аудио #2
Идентификатор : 3
Формат : AC-3
Формат/Информация : Audio Coding 3
Идентификатор кодека : A_AC3
Продолжительность : 2 ч. 10 м.
Вид битрейта : Постоянный
Битрейт : 448 Кбит/сек
Каналы : 6 каналов
Расположение каналов : Front: L C R, Side: L R, LFE
Частота : 48,0 КГц
Частота кадров : 31,250 кадров/сек (1536 SPF)
Битовая глубина : 16 бит
Метод сжатия : С потерями
Размер потока : 418 Мбайт (15%)
Язык : English
ServiceKind/String : Complete Main
Default : Нет
Forced : Нет
Текст #1
Идентификатор : 4
Формат : UTF-8
Идентификатор кодека : S_TEXT/UTF8
Идентификатор кодека/Информация : UTF-8 Plain Text
Продолжительность : 1 ч. 56 м.
Битрейт : 0 бит/сек
ElementCount : 4
Размер потока : 216 байт (0%)
Заголовок : Forced
Язык : Russian
Default : Да
Forced : Нет
Текст #2
Идентификатор : 5
Формат : UTF-8
Идентификатор кодека : S_TEXT/UTF8
Идентификатор кодека/Информация : UTF-8 Plain Text
Продолжительность : 2 ч. 9 м.
Битрейт : 77 бит/сек
ElementCount : 1576
Размер потока : 73,5 Кбайт (0%)
Заголовок : Full
Язык : Russian
Default : Нет
Forced : Нет
Текст #3
Идентификатор : 6
Формат : UTF-8
Идентификатор кодека : S_TEXT/UTF8
Идентификатор кодека/Информация : UTF-8 Plain Text
Продолжительность : 2 ч. 10 м.
Битрейт : 87 бит/сек
ElementCount : 2092
Размер потока : 83,7 Кбайт (0%)
Язык : Russian
Default : Нет
Forced : Нет
Текст #4
Идентификатор : 7
Формат : UTF-8
Идентификатор кодека : S_TEXT/UTF8
Идентификатор кодека/Информация : UTF-8 Plain Text
Продолжительность : 2 ч. 9 м.
Битрейт : 84 бит/сек
ElementCount : 1560
Размер потока : 80,0 Кбайт (0%)
Заголовок : Full 1
Язык : Russian
Default : Нет
Forced : Нет
Текст #5
Идентификатор : 8
Формат : UTF-8
Идентификатор кодека : S_TEXT/UTF8
Идентификатор кодека/Информация : UTF-8 Plain Text
Продолжительность : 2 ч. 9 м.
Битрейт : 49 бит/сек
ElementCount : 1568
Размер потока : 47,1 Кбайт (0%)
Язык : English
Default : Нет
Forced : Нет
Меню
00:00:00.000 : :00:00:00.000
00:06:20.672 : :00:06:20.672
00:14:11.642 : :00:14:11.642
00:22:12.873 : :00:22:12.873
00:26:43.060 : :00:26:43.060
00:31:29.721 : :00:31:29.721
00:35:03.935 : :00:35:03.935
00:42:49.734 : :00:42:49.734
00:48:31.534 : :00:48:31.534
00:59:38.784 : :00:59:38.784
01:07:57.907 : :01:07:57.907
01:17:30.604 : :01:17:30.604
01:27:25.323 : :01:27:25.323
01:36:08.721 : :01:36:08.721
01:42:35.733 : :01:42:35.733
01:49:19.887 : :01:49:19.887
01:54:57.599 : :01:54:57.599
02:00:37.522 : :02:00:37.522
Трейлер
Download / Скачать

Хотите скачать бесплатно? Зарегистрируйтесь на сайте (ссылка на регистрацию). Pirat.ca - самый быстрый торрент трекер в рунете!

Как скачивать  ·   Что такое торрент  ·   Рейтинг и ограничения

ss80

Гроза морей

36

Пост 23-Фев-2018 16:00 (спустя 6 часов)

[Q] 

Спасибо!!! Супер!
[Профиль]  [ЛС] 

clark

Флибустьер

Пост 23-Фев-2018 23:05 (спустя 7 часов)

[Q] 

зачет смотрим!!!

_________________
Последним смеётся тот, кто стреляет первым.
[Профиль]  [ЛС] 

oksnar

Штурман

Пост 05-Мар-2018 18:57 (спустя 9 дней)

[Q] 

посмотрел - не пожалел! Спасибо!!!
[Профиль]  [ЛС] 

Sakoru

Корсар

Пост 12-Мар-2018 18:29 (спустя 6 дней)

[Q] 

Как то Тор уже не тот. На любителя

_________________
[Профиль]  [ЛС] 

woger68

Корсар

Пост 16-Мар-2018 14:44 (спустя 3 дня)

[Q] 

Рагнарёк- подготовка мира людей rum
Автору респект!!!
[Профиль]  [ЛС] 

andreyka1975

Лоцман

Пост 06-Апр-2018 10:50 (спустя 20 дней)

[Q] 

спасибо! Автору респект!!!
[Профиль]  [ЛС] 

Old Bestof

Корсар

Пост 09-Май-2018 21:51 (спустя 1 месяц 3 дня)

[Q] 

Спасибо! Качество отличное!
[Профиль]  [ЛС] 

the_lame

Флибустьер

Пост 19-Май-2018 12:12 (спустя 9 дней)

[Q] 

Жвачка для мозгов
[Профиль]  [ЛС] 
Показать сообщения:    
Ответить на тему

Текущее время: Сегодня 01:11

Часовой пояс: GMT + 4



Вы не можете начинать темы
Вы не можете отвечать на сообщения
Вы не можете редактировать свои сообщения
Вы не можете удалять свои сообщения
Вы не можете голосовать в опросах
Вы не можете прикреплять файлы к сообщениям
Вы не можете скачивать файлы

Майнать ▼