Афера доктора Нока / Knock (Лоррэйн Леви / Lorraine Lévy) [2017 г., комедия, BDRip-AVC] Dub [iTunes]

Ответить на тему
 
Автор
Сообщение

Пост 23-Фев-2018 13:23

[Q] 

aleksey99

--Афера доктора Нока / Knock-- Производство: Франция, Бельгия / Canal+
Год выпуска: 2017 г.
Жанр: комедия
Продолжительность: 01:54:02--Мировая премьера: 18 октября 2017
Российская премьера: 9 ноября 2017, «MEGOGO Distribution»
Цифровой релиз: 20 февраля 2018, «Megogo Distribution»
Дата выхода DVD: 5 марта 2018, «НД Плэй»
Дата выхода Blu-Ray: 5 марта 2018, «НД Плэй»--Перевод: Профессиональный (полное дублирование) [iTunes]--Режиссер: Лоррэйн Леви / Lorraine Lévy--В ролях: Омар Си, Алекс Лутс, Ана Жирардо, Сабин Азема, Паскаль Элбе, Одри Дана, Мишель Вюйермоз, Кристиан Эк, Элен Венсан, Андреа Ферреоль--Описание: 1950-е. Карманник и авантюрист Нок, скрываясь от «коллег» в небольшом французском городке Сен-Морис, притворяется лицензированным врачом. Он придумал хитрый, но простой план, как не остаться без средств к существованию: лечить здоровых людей от несуществующих у них болезней. Нок — мастер в искусстве манипуляции и соблазнения — почти достиг желанной цели, если бы не два небольших затруднения: он влюбился, а на пороге неожиданно появился друг из прошлого, который намерен рассказать всю правду о докторе.-- --Качество видео: BDRip-AVC
Контейнер: MKV
Видео кодек: AVC/H.264
Аудио кодек: AC3
Видео: 1024x432 (2.40:1), 23,976 fps, x264 ~1498 kbps avg, 0.141 bit/pixel
Аудио: 48 kHz, AC3 Dolby Digital, 3/2 (L,C,R,l,r) + LFE ch, ~384 kbps
Cубтитры: отсутствуют.
Общее
Уникальный идентификатор : 194864052833316816944742365715728248631 (0x92997391CF5C8D7CBE2161D4EE292F37)
Полное имя : H:\Torrent2\Knock.2017.BDRip(AVC).mkv
Формат : Matroska
Версия формата : Version 2
Размер файла : 1,50 Гбайт
Продолжительность : 1 ч. 54 м.
Общий поток : 1883 Кбит/сек
Дата кодирования : UTC 2018-02-20 09:19:49
Программа кодирования : mkvmerge v7.8.0 ('River Man') 32bit built on Apr 3 2015 12:11:22
Библиотека кодирования : libebml v1.3.1 + libmatroska v1.4.2
Видео
Идентификатор : 1
Формат : AVC
Формат/Информация : Advanced Video Codec
Профиль формата : [email protected]
Настройки формата : CABAC / 10 Ref Frames
Параметр CABAC формата : Да
Параметр RefFrames формата : 10 кадров
Идентификатор кодека : V_MPEG4/ISO/AVC
Продолжительность : 1 ч. 54 м.
Битрейт : 1498 Кбит/сек
Ширина : 1024 пикселя
Высота : 432 пикселя
Соотношение сторон : 2,40:1
Режим частоты кадров : Постоянный
Частота кадров : 23,976 (24000/1001) кадра/сек
Цветовое пространство : YUV
Субдискретизация насыщенности : 4:2:0
Битовая глубина : 8 бит
Тип развёртки : Прогрессивная
Бит/(Пиксели*Кадры) : 0.141
Размер потока : 1,16 Гбайт (78%)
Библиотека кодирования : x264 core 146 r2538 121396c
Настройки программы : cabac=1 / ref=10 / deblock=1:-3:-3 / analyse=0x3:0x133 / me=umh / subme=11 / psy=1 / psy_rd=0.99:0.07 / mixed_ref=1 / me_range=48 / chroma_me=1 / trellis=2 / 8x8dct=1 / cqm=0 / deadzone=21,11 / fast_pskip=1 / chroma_qp_offset=-3 / threads=6 / lookahead_threads=1 / sliced_threads=0 / nr=0 / decimate=1 / interlaced=0 / bluray_compat=0 / constrained_intra=0 / bframes=10 / b_pyramid=2 / b_adapt=2 / b_bias=0 / direct=3 / weightb=1 / open_gop=0 / weightp=2 / keyint=240 / keyint_min=23 / scenecut=40 / intra_refresh=0 / rc_lookahead=40 / rc=2pass / mbtree=0 / bitrate=1498 / ratetol=1.0 / qcomp=0.60 / qpmin=0 / qpmax=69 / qpstep=4 / cplxblur=20.0 / qblur=0.5 / vbv_maxrate=50000 / vbv_bufsize=62500 / nal_hrd=none / filler=0 / ip_ratio=1.40 / pb_ratio=1.30 / aq=1:1.00
Язык : English
Default : Да
Forced : Нет
Аудио
Идентификатор : 2
Формат : AC-3
Формат/Информация : Audio Coding 3
Идентификатор кодека : A_AC3
Продолжительность : 1 ч. 54 м.
Вид битрейта : Постоянный
Битрейт : 384 Кбит/сек
Каналы : 6 каналов
Расположение каналов : Front: L C R, Side: L R, LFE
Частота : 48,0 КГц
Частота кадров : 31,250 кадров/сек (1536 SPF)
Битовая глубина : 16 бит
Метод сжатия : С потерями
Размер потока : 313 Мбайт (20%)
Заголовок : iTunes
Язык : Russian
ServiceKind/String : Complete Main
Default : Да
Forced : Нет
Меню
00:00:00.000 : en:00:00:00.000
00:10:59.951 : en:00:10:59.951
00:22:23.050 : en:00:22:23.050
00:32:14.599 : en:00:32:14.599
00:42:45.062 : en:00:42:45.062
00:53:05.474 : en:00:53:05.474
01:02:24.741 : en:01:02:24.741
01:11:57.522 : en:01:11:57.522
01:22:32.990 : en:01:22:32.990
01:33:03.411 : en:01:33:03.411
01:42:20.217 : en:01:42:20.217
01:50:51.854 : en:01:50:51.854
Трейлер
Download / Скачать

Хотите скачать бесплатно? Зарегистрируйтесь на сайте (ссылка на регистрацию). Pirat.ca - самый быстрый торрент трекер в рунете!

Как скачивать  ·   Что такое торрент  ·   Рейтинг и ограничения

fishman

Флибустьер

Пост 23-Фев-2018 19:26 (спустя 6 часов)

[Q] 

Спасибо!!! rum

_________________
|___|___|___|___|___|___|___|__|__
__|__|__|_Биться головой_|___|___|
|___|___|___|__сюда!!___|___|__|__
__|___|___|___|___|___|___|__|__
[Профиль]  [ЛС] 

VKValiant

Лоцман

Пост 23-Фев-2018 19:42 (спустя 16 минут)

[Q] 

Спасибо глянем, поднимим настроение в праздник!)))
[Профиль]  [ЛС] 

clark

Флибустьер

Пост 23-Фев-2018 22:50 (спустя 3 часа)

[Q] 

зачет спасибо!!!

_________________
Последним смеётся тот, кто стреляет первым.
[Профиль]  [ЛС] 

Sharifulla

Корсар

Пост 24-Фев-2018 12:39 (спустя 13 часов)

[Q] 

Хороший фильм. Автору спасибо за труды Лови бочку
[Профиль]  [ЛС] 

alexx2201

34

Пост 26-Фев-2018 21:57 (спустя 2 дня 9 часов)

[Q] 

Омар на высоте, добрый под пивас кинец aa Лови бочку

_________________
Одним ветром дышим, Пираты!
[Профиль]  [ЛС] 

usya5

Корсар

Пост 02-Мар-2018 16:23 (спустя 3 дня)

[Q] 

Попробуем посмотреть Лови бочку
[Профиль]  [ЛС] 

Promed-ol

Штурман

Пост 03-Мар-2018 03:47 (спустя 11 часов)

[Q] 

Зачетный фильмец, нам понравился.
[Профиль]  [ЛС] 

clark

Флибустьер

Пост 03-Мар-2018 21:29 (спустя 17 часов)

[Q] 

зачет спасибо!!!

_________________
Последним смеётся тот, кто стреляет первым.
[Профиль]  [ЛС] 

usya5

Корсар

Пост 05-Мар-2018 20:59 (спустя 1 день 23 часа)

[Q] 

посмотрели, фильм понравился. 7/10
[Профиль]  [ЛС] 

shelby290

Флибустьер

Пост 06-Мар-2018 22:27 (спустя 1 день 1 час)

[Q] 

Фильм очень понравился!
[Профиль]  [ЛС] 

baltimor30

Корсар

Пост 10-Мар-2018 01:33 (спустя 3 дня)

[Q] 

Советую, фильм отпад, прослезился блин Зуб даю...
[Профиль]  [ЛС] 

Mustafa Sazont

Корсар

Пост 13-Мар-2018 14:33 (спустя 3 дня)

[Q] 

Вчера смотрел, - настолько позитивный и добрый фильм. Побольше таких хочется смотреть!
[Профиль]  [ЛС] 

SwordFish

Морской Волк

631

Пост 03-Май-2018 11:02 (спустя 1 месяц 20 дней)

[Q] 

Омар Си как всегда на высоте. Фильм интересен и позитивен. Картина хорошо описывает и нынешнее моральное состоянии медицины: "Вот вам рецепт, а купить это можно вон в той аптеке"
Оценка8/10 Супер!
[Профиль]  [ЛС] 

sztksales

Морской Волк

388

Пост 12-Май-2018 23:59 (спустя 9 дней)

[Q] 

За последнее время из всех фильмов это шедевр
Смотрите все.. не пожалеете. Всем качать!!!

_________________
[Профиль]  [ЛС] 

Fortboss

Юнга

Пост 22-Май-2018 02:23 (спустя 9 дней)

[Q] 

Одобрямс! Классный фильм!!!! Рекомендую!
[Профиль]  [ЛС] 
Показать сообщения:    
Ответить на тему

Текущее время: Сегодня 16:59

Часовой пояс: GMT + 4



Вы не можете начинать темы
Вы не можете отвечать на сообщения
Вы не можете редактировать свои сообщения
Вы не можете удалять свои сообщения
Вы не можете голосовать в опросах
Вы не можете прикреплять файлы к сообщениям
Вы не можете скачивать файлы

Майнать ▼