Обитель теней / Marrowbone (Серхио Х. Санчес / Sergio G. Sánchez ) [2017, ужасы, триллер, драма, HDRip] Дублированный [iTunes]

Ответить на тему
 
Автор
Сообщение

Пост 23-Фев-2018 19:14

[Q] 

Су-34

Гроза морей

Обитель теней / Marrowbone -«Мы здесь не одни»- -
Год выпуска: 2017
Страна: Испания
Жанр: ужасы, триллер, драма
Продолжительность: 01:50:41
Перевод: Дублированный [iTunes]
Субтитры: нет- Режиссер: Серхио Х. Санчес / Sergio G. Sánchez- В ролях:
-Джордж МакКэй (Jack), Аня Тейлор-Джой (Allie), Чарли Хитон (Billy), Миа Гот (Jane), Мэттью Стэгг (Sam), Николя Харрисон (Rose), Кайл Соллер (Tom Porter), Том Фишер (Simon Fairbairn), Myra Kathryn Pearse (Molly), Пол Джессон (Doctor), Роберт Нэйрн (Monstruo), Лаура Брук (Thelma)- Описание:
Мрачная тайна окутывает старинный особняк, в котором Джек уединенно живет с братьями и сестрой. Однако обитель теней открыла свои двери для прекрасной незнакомки, живущей по соседству. Она пока не знает, что здесь в любой момент зловещие силы готовы нанести удар из темноты...- - Качество: HDRip
Формат: AVI
Видео кодек: XviD
Аудио кодек: AC3
Видео: XviD, 720x304 (2.35:1), 1491 kbps, 23,976 fps, 0,284 bpp
Аудио: AC3 / 5.1 / 48 kHz / 384 kbps /-
General
Complete name : D:\Torrents\Obitel`_tenei_2017_HDRip_iT_by_Dalemake.avi
Format : AVI
Format/Info : Audio Video Interleave
File size : 1.46 GiB
Duration : 1 h 50 min
Overall bit rate : 1 885 kb/s
Writing application : VirtualDubMod 1.5.10.3 | www.virtualdub-fr.org || (build 2550/release)
Writing library : VirtualDubMod build 2550/release
Video
ID : 0
Format : MPEG-4 Visual
Format profile : Advanced Simple@L5
Format settings, BVOP : 1
Format settings, QPel : No
Format settings, GMC : No warppoints
Format settings, Matrix : Custom
Codec ID : XVID
Codec ID/Hint : XviD
Duration : 1 h 50 min
Bit rate : 1 492 kb/s
Width : 720 pixels
Height : 304 pixels
Display aspect ratio : 2.35:1
Frame rate : 23.976 (23976/1000) FPS
Color space : YUV
Chroma subsampling : 4:2:0
Bit depth : 8 bits
Scan type : Progressive
Compression mode : Lossy
Bits/(Pixel*Frame) : 0.284
Stream size : 1.15 GiB (79%)
Writing library : XviD 67
Audio
ID : 1
Format : AC-3
Format/Info : Audio Coding 3
Mode extension : CM (complete main)
Format settings, Endianness : Big
Codec ID : 2000
Duration : 1 h 50 min
Bit rate mode : Constant
Bit rate : 384 kb/s
Channel(s) : 6 channels
Channel positions : Front: L C R, Side: L R, LFE
Sampling rate : 48.0 kHz
Frame rate : 31.250 FPS (1536 spf)
Compression mode : Lossy
Stream size : 304 MiB (20%)
Alignment : Split accross interleaves
Interleave, duration : 42 ms (1.00 video frame)
Interleave, preload duration : 500 ms
Download / Скачать

Хотите скачать бесплатно? Зарегистрируйтесь на сайте (ссылка на регистрацию). Pirat.ca - самый быстрый торрент трекер в рунете!

Как скачивать  ·   Что такое торрент  ·   Рейтинг и ограничения



Последний раз редактировалось: Су-34 (2018-02-23 22:01), всего редактировалось 2 раз(а)

SANMARS

Лоцман

Пост 25-Фев-2018 00:09 (спустя 1 день 4 часа)

[Q] 

Рекомендую!!!!!!!!!! Давно небыло таких Фильмов!!! Неожиданная коцовка.
[Профиль]  [ЛС] 

clark

Флибустьер

Пост 25-Фев-2018 15:46 (спустя 15 часов)

[Q] 

посмотрим спасибо!!!!

_________________
Последним смеётся тот, кто стреляет первым.
[Профиль]  [ЛС] 

RomanTroizk

Корсар

Пост 26-Фев-2018 21:23 (спустя 1 день 5 часов)

[Q] 

Спасибо за рекомендацию- качаю!!!! Всем качать!!!
[Профиль]  [ЛС] 

alexx2201

34

Пост 26-Фев-2018 21:56 (спустя 32 минуты)

[Q] 

НЕ ВЕРЮ,,,,!!!!

_________________
Одним ветром дышим, Пираты!
[Профиль]  [ЛС] 

feldorius

Корсар

Пост 26-Фев-2018 22:37 (спустя 41 минута)

[Q] 

Качаю. Хотел мимо пройти, но комент остановил )
[Профиль]  [ЛС] 

Agat

Корсар

Пост 10-Мар-2018 21:11 (спустя 11 дней)

[Q] 

Согласен. Заинтриговали))

_________________
Не для Нас, команда - Вольно, отдохнём, когда раздавят!!!
[Профиль]  [ЛС] 

shelby290

Флибустьер

Пост 12-Мар-2018 22:03 (спустя 2 дня)

[Q] 

Достойный фильм!
[Профиль]  [ЛС] 

Luppi

Шкипер

11

Пост 25-Мар-2018 14:58 (спустя 12 дней)

[Q] 

Мне понравилось, довольно необычно! Супер!
[Профиль]  [ЛС] 

van4ela

Штурман

Пост 25-Мар-2018 18:22 (спустя 3 часа)

[Q] 

Из всего предоставленного для просмотра видеоконтента - одно из самых достойных!!! Лови бочку
[Профиль]  [ЛС] 

FakeeR

Шкипер

Пост 31-Мар-2018 23:35 (спустя 6 дней)

[Q] 

Да действительно, хороший фильм, смело можно рекомендовать к просмотру!
[Профиль]  [ЛС] 

zmaksimz

Корсар

Пост 01-Апр-2018 18:18 (спустя 18 часов)

[Q] 

Так себе, на разок
[Профиль]  [ЛС] 

SwordFish

Морской Волк

1037

Пост 02-Май-2018 12:38 (спустя 1 месяц)

[Q] 

Норм триллер с неожиданной концовкой Мне понравилось
[Профиль]  [ЛС] 

dl22

Морской Волк

Пост 13-Май-2018 17:22 (спустя 11 дней)

[Q] 

Лови бочку !COOL!
[Профиль]  [ЛС] 

lexaspirit

Пост 11-Июн-2018 10:19 (спустя 28 дней)

[Q] 

Больше половины фильма не о чем. В последние 30 мин вся развязка и конечно неожиданная концовка. В принципе на разок посмотреть можно

_________________
-------------------- ----------------------
[Профиль]  [ЛС] 
Показать сообщения:    
Ответить на тему

Текущее время: Сегодня 07:51

Часовой пояс: GMT + 4



Вы не можете начинать темы
Вы не можете отвечать на сообщения
Вы не можете редактировать свои сообщения
Вы не можете удалять свои сообщения
Вы не можете голосовать в опросах
Вы не можете прикреплять файлы к сообщениям
Вы не можете скачивать файлы

Майнать ▼