Все только начинается / Just Getting Started (Рон Шелтон / Ron Shelton) [2017 г., боевик, комедия, BDRip-AVC] Dub [iTunes] + Original (Eng) + Sub (Eng)

Ответить на тему
 
Автор
Сообщение

Пост 24-Фев-2018 20:08

[Q] 

aleksey99

--Все только начинается / Just Getting Started--«Вечеринка будет жаркой»-- Производство: США / Broad Green Pictures
Год выпуска: 2017 г.
Жанр: боевик, комедия
Продолжительность: 01:30:53--Мировая премьера: 1 декабря 2017
Российская премьера: 11 января 2018, «Парадиз»--Перевод: Профессиональный (полное дублирование) [iTunes]
Оригинальный аудиопоток: английский--Режиссер: Рон Шелтон / Ron Shelton--В ролях: Морган Фримен, Томми Ли Джонс, Рене Руссо, Гленн Хедли, Джейн Сеймур, Шерил Ли Ральф, Джо Пантолиано, Элизабет Эшли, Рэйчел Де Ла Торре, Джонни Мэтис--Описание: Дюк, некогда блистательный адвокат крупных преступных группировок, находясь под программой по защите свидетелей, зажигает на роскошной вилле Капри, устраивая безбашенные праздники жизни для своих гостей и превращая будни в яркий Jazz. Однажды под Рождество на виллу приезжает брутальный экс-агент ФБР Лео и переворачивает все вверх дном. Но, как оказалось, все только начинается: вслед за Лео на виллу подтягиваются парни из мафии, имеющие старый зуб на Дюка и Лео. Вечеринка будет жаркой!-- --Качество видео: BDRip-AVC
Контейнер: MKV
Видео кодек: AVC/H.264
Аудио кодек: AC3
Видео: AVC, 1024x426 (2.40:1), 23.976 fps, 1998 Kbps, 0.191 bit/pixel
Аудио 1: 48 kHz, AC3 Dolby Digital, 3/2 (L,C,R,l,r) + LFE ch, ~384 kbps RUS
Аудио 2: 48 kHz, AC3 Dolby Digital, 3/2 (L,C,R,l,r) + LFE ch, ~448 kbps ENG
Cубтитры: английские.
Общее
Уникальный идентификатор : 198633627881859547495223147759357006610 (0x956F71F7F8B2BCD1A4F524AA2E221312)
Полное имя : H:\Torrent2\Just.Getting.Started.2017.BDRip.AVC.mkv
Формат : Matroska
Версия формата : Version 2
Размер файла : 1,88 Гбайт
Продолжительность : 1 ч. 33 м.
Общий поток : 2887 Кбит/сек
Дата кодирования : UTC 2018-02-21 21:06:22
Программа кодирования : mkvmerge v5.6.0 ('Kenya Kane') built on May 27 2012 16:44:04
Библиотека кодирования : libebml v1.2.3 + libmatroska v1.3.0
Видео
Идентификатор : 1
Формат : AVC
Формат/Информация : Advanced Video Codec
Профиль формата : High@L4.1
Настройки формата : CABAC / 11 Ref Frames
Параметр CABAC формата : Да
Параметр RefFrames формата : 11 кадров
Идентификатор кодека : V_MPEG4/ISO/AVC
Продолжительность : 1 ч. 33 м.
Битрейт : 1998 Кбит/сек
Номинальный битрейт : 2122 Кбит/сек
Ширина : 1024 пикселя
Высота : 426 пикселей
Соотношение сторон : 2,40:1
Режим частоты кадров : Постоянный
Частота кадров : 23,976 (23976/1000) кадра/сек
Цветовое пространство : YUV
Субдискретизация насыщенности : 4:2:0
Битовая глубина : 8 бит
Тип развёртки : Прогрессивная
Бит/(Пиксели*Кадры) : 0.191
Размер потока : 1,30 Гбайт (69%)
Заголовок : Enigma
Библиотека кодирования : x264 core 152 r2851 ba24899
Настройки программы : cabac=1 / ref=11 / deblock=1:-2:-2 / analyse=0x3:0x113 / me=umh / subme=10 / psy=1 / psy_rd=1.05:0.10 / mixed_ref=1 / me_range=32 / chroma_me=1 / trellis=2 / 8x8dct=1 / cqm=0 / deadzone=21,11 / fast_pskip=0 / chroma_qp_offset=-3 / threads=12 / lookahead_threads=3 / sliced_threads=0 / nr=0 / decimate=0 / interlaced=0 / bluray_compat=0 / constrained_intra=0 / bframes=10 / b_pyramid=2 / b_adapt=2 / b_bias=0 / direct=3 / weightb=1 / open_gop=0 / weightp=2 / keyint=240 / keyint_min=23 / scenecut=40 / intra_refresh=0 / rc_lookahead=40 / rc=2pass / mbtree=0 / bitrate=2122 / ratetol=1.0 / qcomp=0.60 / qpmin=0 / qpmax=51 / qpstep=4 / cplxblur=20.0 / qblur=0.5 / vbv_maxrate=50000 / vbv_bufsize=62500 / nal_hrd=none / filler=0 / ip_ratio=1.40 / pb_ratio=1.30 / aq=3:0.80
Язык : English
Default : Да
Forced : Нет
Цветовой диапазон : Limited
Основные цвета : BT.709
Характеристики трансфера : BT.709
Коэффициенты матрицы : BT.709
Аудио #1
Идентификатор : 2
Формат : AC-3
Формат/Информация : Audio Coding 3
Идентификатор кодека : A_AC3
Продолжительность : 1 ч. 33 м.
Вид битрейта : Постоянный
Битрейт : 384 Кбит/сек
Каналы : 6 каналов
Расположение каналов : Front: L C R, Side: L R, LFE
Частота : 48,0 КГц
Частота кадров : 31,250 кадров/сек (1536 SPF)
Битовая глубина : 16 бит
Метод сжатия : С потерями
Размер потока : 256 Мбайт (13%)
Заголовок : iTunes
Язык : Russian
ServiceKind/String : Complete Main
Default : Да
Forced : Нет
Аудио #2
Идентификатор : 3
Формат : AC-3
Формат/Информация : Audio Coding 3
Идентификатор кодека : A_AC3
Продолжительность : 1 ч. 33 м.
Вид битрейта : Постоянный
Битрейт : 448 Кбит/сек
Каналы : 6 каналов
Расположение каналов : Front: L C R, Side: L R, LFE
Частота : 48,0 КГц
Частота кадров : 31,250 кадров/сек (1536 SPF)
Битовая глубина : 16 бит
Метод сжатия : С потерями
Размер потока : 298 Мбайт (16%)
Язык : English
ServiceKind/String : Complete Main
Default : Нет
Forced : Нет
Текст
Идентификатор : 4
Формат : UTF-8
Идентификатор кодека : S_TEXT/UTF8
Идентификатор кодека/Информация : UTF-8 Plain Text
Язык : English
Default : Нет
Forced : Нет
Меню
00:00:00.000 : en:Chapter 1
00:06:37.647 : en:Chapter 2
00:11:13.506 : en:Chapter 3
00:15:24.131 : en:Chapter 4
00:22:28.722 : en:Chapter 5
00:28:59.195 : en:Chapter 6
00:34:12.467 : en:Chapter 7
00:40:40.646 : en:Chapter 8
00:49:58.495 : en:Chapter 9
00:54:15.377 : en:Chapter 10
01:00:56.277 : en:Chapter 11
01:05:43.022 : en:Chapter 12
01:12:51.367 : en:Chapter 13
01:18:13.897 : en:Chapter 14
01:22:24.272 : en:Chapter 15
01:25:26.788 : en:Chapter 16
Трейлер
Download / Скачать

Хотите скачать бесплатно? Зарегистрируйтесь на сайте (ссылка на регистрацию). Pirat.ca - самый быстрый торрент трекер в рунете!

Как скачивать  ·   Что такое торрент  ·   Рейтинг и ограничения

fishman

Флибустьер

Пост 24-Фев-2018 21:54 (спустя 1 час 45 минут)

[Q] 

Спасибо!!! Лови бочку

_________________
|___|___|___|___|___|___|___|__|__
__|__|__|_Биться головой_|___|___|
|___|___|___|__сюда!!___|___|__|__
__|___|___|___|___|___|___|__|__
[Профиль]  [ЛС] 

clark

Флибустьер

Пост 25-Фев-2018 15:50 (спустя 17 часов)

[Q] 

крутяк глянем фильмец!!!

_________________
Последним смеётся тот, кто стреляет первым.
[Профиль]  [ЛС] 

Sector_X

311

Пост 26-Фев-2018 01:34 (спустя 9 часов)

[Q] 

Спасибо!!! Супер!

_________________

[Профиль]  [ЛС] 

ketzer

Корсар

Пост 26-Фев-2018 01:58 (спустя 24 минуты)

[Q] 

Просто ни о чём.
[Профиль]  [ЛС] 

MurMurChek

Лоцман

Пост 27-Фев-2018 10:02 (спустя 1 день 8 часов)

[Q] 

Не тратьте своё время на этот отстой
[Профиль]  [ЛС] 

Golden

Морской Волк

Пост 27-Фев-2018 15:06 (спустя 5 часов)

[Q] 

Жаль, что такие хорошие актеры играют в таком дерьмовом кино
Раздающему респект!
[Профиль]  [ЛС] 

usya5

Корсар

Пост 02-Мар-2018 22:12 (спустя 3 дня)

[Q] 

820039Жаль, что такие хорошие актеры играют в таком дерьмовом кино
Раздающему респект!
блин, только повелся на актеров(((( хотел глянуть.
[Профиль]  [ЛС] 

alex198408

Корсар

Пост 06-Мар-2018 01:16 (спустя 3 дня)

[Q] 

нужно глянуть держи Лови бочку
[Профиль]  [ЛС] 

Sharifulla

Корсар

Пост 06-Мар-2018 21:05 (спустя 19 часов)

[Q] 

Автор, спасибо за труды.
[Профиль]  [ЛС] 

alexandrover

Штурман

Пост 10-Мар-2018 16:50 (спустя 3 дня)

[Q] 

Неплохие актеры (как на мой вкус), но рейтинг 4,0 - это шлак. Раздающему бочку за труды, качать не буду.
[Профиль]  [ЛС] 

Лукинофф2

Шкипер

Пост 13-Мар-2018 14:25 (спустя 2 дня 21 час)

[Q] 

Ходил в кино на этот шлак. Ушел на 20 минуте
[Профиль]  [ЛС] 

baltimor30

Корсар

Пост 13-Мар-2018 21:32 (спустя 7 часов)

[Q] 

Еле досмотрел, так как другого в дубляже нет, хня одним словом
[Профиль]  [ЛС] 

lexaspirit

Пост 30-Июн-2018 14:31 (спустя 3 месяца 16 дней)

[Q] 

Фильм средний. Никакой напряженности. Концовка на мой взгляд тупая. Можно было что нибудь поприкольней придумать

_________________
-------------------- ----------------------
[Профиль]  [ЛС] 
Показать сообщения:    
Ответить на тему

Текущее время: Сегодня 17:50

Часовой пояс: GMT + 4



Вы не можете начинать темы
Вы не можете отвечать на сообщения
Вы не можете редактировать свои сообщения
Вы не можете удалять свои сообщения
Вы не можете голосовать в опросах
Вы не можете прикреплять файлы к сообщениям
Вы не можете скачивать файлы

Майнать ▼