Довлатов (Алексей Герман мл.) [2018, драма, мелодрама, TS] Оригинальный

Ответить на тему
 
Автор
Сообщение

Пост 06-Мар-2018 19:20

[Q] 

Су-34

Гроза морей

Довлатов
-
Год выпуска: 2018
Страна: Россия, Польша, Сербия
Жанр: драма, мелодрама
Продолжительность: 01:50:50
Перевод: Оригинальный- Режиссер: Алексей Герман мл.- В ролях:
-Милан Марич (Сергей Довлатов), Данила Козловский (Давид), Хелена Суецка (Елена Довлатова), Ева Герр (Катя Довлатова), Артур Бесчастный (Иосиф Бродский), Антон Шагин (Антон Кузнецов), Светлана Ходченкова (актриса, подруга Довлатова), Елена Лядова (молодой редактор), Игорь Митюшкин (Шолом Шварц), Пётр Гонсовский (Семен Александрович), Тамара Оганесян (Нора Довлатова), Аревик Геворкян (девушка из Армении)- Описание:
Фильм о нескольких днях из жизни писателя Сергея Довлатова в Ленинграде начала 70-х годов накануне эмиграции его друга, будущего лауреата Нобелевской премии Иосифа Бродского. Это круговорот из парадоксальных и смешных ситуаций. Столкновение с криминалом, светская и литературная жизнь Ленинграда, киностудия «Ленфильм», музыка, чтение стихов, ремесло журналиста, страстное желание купить для своей дочери куклу, которую не достать нигде.-Семпл: http://multi-up.com/1189583
Кинопоиск: https://www.kinopoisk.ru/film/dovlatov-2018-893988/- Качество: TS
Формат: AVI
Видео кодек: XviD
Аудио кодек: AC3
Видео: XviD, 720x304 (2.35:1), 1563 kbps, 23,976 fps, 0,298 bpp
Аудио: AC3 / 2.0 / 48 kHz / 192 kbps /-
General
Complete name : D:\Torrents\DovlatoFF.2O18.O.TS.14OOMB.avi
Format : AVI
Format/Info : Audio Video Interleave
File size : 1.37 GiB
Duration : 1 h 50 min
Overall bit rate : 1 765 kb/s
Writing application : VirtualDubMod 1.5.10.2 (build 2540/release)
Writing library : VirtualDubMod build 2540/release
Video
ID : 0
Format : MPEG-4 Visual
Format profile : Advanced [email protected]
Format settings, BVOP : 2
Format settings, QPel : No
Format settings, GMC : No warppoints
Format settings, Matrix : Default (MPEG)
Codec ID : XVID
Codec ID/Hint : XviD
Duration : 1 h 50 min
Bit rate : 1 564 kb/s
Width : 720 pixels
Height : 304 pixels
Display aspect ratio : 2.35:1
Frame rate : 23.976 (24000/1001) FPS
Color space : YUV
Chroma subsampling : 4:2:0
Bit depth : 8 bits
Scan type : Progressive
Compression mode : Lossy
Bits/(Pixel*Frame) : 0.298
Stream size : 1.21 GiB (89%)
Writing library : XviD 1.2.1 (UTC 2008-12-04)
Audio
ID : 1
Format : AC-3
Format/Info : Audio Coding 3
Mode extension : CM (complete main)
Format settings, Endianness : Big
Codec ID : 2000
Duration : 1 h 50 min
Bit rate mode : Constant
Bit rate : 192 kb/s
Channel(s) : 2 channels
Channel positions : Front: L R
Sampling rate : 48.0 kHz
Frame rate : 31.250 FPS (1536 spf)
Compression mode : Lossy
Stream size : 152 MiB (11%)
Alignment : Split accross interleaves
Interleave, duration : 42 ms (1.00 video frame)
Interleave, preload duration : 500 ms
Download / Скачать

Хотите скачать бесплатно? Зарегистрируйтесь на сайте (ссылка на регистрацию). Pirat.ca - самый быстрый торрент трекер в рунете!

Как скачивать  ·   Что такое торрент  ·   Рейтинг и ограничения

mash8055

Шкипер

Пост 08-Мар-2018 20:00 (спустя 2 дня)

[Q] 

Хорошо, но атмосферы нет, нет Его тонкого юмора.
[Профиль]  [ЛС] 

woger68

Корсар

Пост 16-Мар-2018 15:14 (спустя 7 дней)

[Q] 

Очень хочу посмотреть, жду качества!
[Профиль]  [ЛС] 

Skala973

Флибустьер

Пост 23-Апр-2018 04:41 (спустя 1 месяц 6 дней)

[Q] 

За раздачу спасибо, но фильм - пустой.
Довлатова надо читать! А кино про него смотреть, это бессмысленная трата времени.
Ну что толку смотреть кино про Цоя или Высоцкого? Их надо слушать.
Вот и с Довлатовым также.
[Профиль]  [ЛС] 
Показать сообщения:    
Ответить на тему

Текущее время: Сегодня 08:12

Часовой пояс: GMT + 4



Вы не можете начинать темы
Вы не можете отвечать на сообщения
Вы не можете редактировать свои сообщения
Вы не можете удалять свои сообщения
Вы не можете голосовать в опросах
Вы не можете прикреплять файлы к сообщениям
Вы не можете скачивать файлы

Майнать ▼