Джуманджи: Зов джунглей / Jumanji: Welcome to the Jungle (Джейк Кэздан / Jake Kasdan) [2017 г., фэнтези, боевик, комедия, приключения, семейный, WEB-DL 1080p] DUB | iTunes

Ответить на тему
 
Автор
Сообщение

Пост 06-Мар-2018 23:36

[Q] 

kugesan

Джуманджи: Зов джунглей / Jumanji: Welcome to the Jungle-«Осторожно, засосёт»- Производство: США / Matt Tolmach Productions
Год выпуска: 2017 г.
Жанр: фэнтези, боевик, комедия, приключения, семейный
Продолжительность: 01:51:02-Мировая премьера: 5 декабря 2017
Российская премьера: 21 декабря 2017, «WDSSPR»-Перевод: Профессиональный (полное дублирование) | iTunes-Режиссер: Джейк Кэздан / Jake Kasdan-В ролях: Дуэйн Джонсон, Кевин Харт, Джек Блэк, Карен Гиллан, Риз Дэрби, Бобби Каннавале, Ник Джонас, Алекс Вулф, Сер’Дариус Блэйн, Мэдисон Исман-Описание: Четверо подростков оказываются внутри игры «Джуманджи». Их ждет схватка с носорогами, черными мамбами, а на каждом шагу будет подстерегать бесконечная череда ловушек и головоломок. Чтобы пройти игру и остаться в живых, им придется перевоплотиться в персонажей игры: робкий и застенчивый Спенсер превращается в отважного и сильного исследователя, здоровяк Фридж — в коротышку, модница и красавица Беттани — в профессора, а неуклюжая и нескладная Марта становится бесстрашной и ловкой амазонкой. Друзьям придется привыкнуть к совершенно новым и таким непривычным для себя ролям и найти дорогу домой.-Качество: WEB-DL 1080p
Формат: MKV
Видео кодек: x.264
Аудио кодек: AC3/AAC
Видео:MPEG-4 AVC, 1920x796, 4543 kbps, 23.976 fps, 0.124 bit/pixel
Аудио 1: 48 kHz, AC3, 6 ch, ~384 kbps avg |RUS|
Аудио 2: 48 kHz, AAC, 2 ch, ~127 kbps avg |UKR|
Аудио 3: 48 kHz, AC3, 6 ch, ~384 kbps avg |ENG|
Cубтитры: отсутствуют.
Код:
Общее
Уникальный идентификатор                 : 79631259923641429639013061540131891869 (0x3BE86C3C989714E11DD650990983EA9D)
Полное имя                               : E:\_Сериалы\Фильмы\Jumanji.Welcome.to.the.Jungle.2017.WEB-DL.1080p.ExKinoRay.mkv
Формат                                   : Matroska
Версия формата                           : Version 4 / Version 2
Размер файла                             : 4,52 Гбайт
Продолжительность                        : 1 ч. 59 м.
Общий поток                              : 5441 Кбит/сек
Название фильма                          : Jumanji: Welcome to the Jungle 2017 from ExKinoRay
Дата кодирования                         : UTC 2018-03-05 19:35:36
Программа кодирования                    : mkvmerge v21.0.0 ('Tardigrades Will Inherit The Earth') 64-bit
Библиотека кодирования                   : libebml v1.3.5 + libmatroska v1.4.8
Видео
Идентификатор                            : 1
Формат                                   : AVC
Формат/Информация                        : Advanced Video Codec
Профиль формата                          : [email protected]
Настройки формата                        : CABAC / 5 Ref Frames
Параметр CABAC формата                   : Да
Параметр RefFrames формата               : 5 кадров
Идентификатор кодека                     : V_MPEG4/ISO/AVC
Продолжительность                        : 1 ч. 59 м.
Битрейт                                  : 4543 Кбит/сек
Ширина                                   : 1920 пикселей
Высота                                   : 796 пикселей
Соотношение сторон                       : 2,40:1
Режим частоты кадров                     : Постоянный
Частота кадров                           : 23,976 кадра/сек
Цветовое пространство                    : YUV
Субдискретизация насыщенности            : 4:2:0
Битовая глубина                          : 8 бит
Тип развёртки                            : Прогрессивная
Бит/(Пиксели*Кадры)                      : 0.124
Размер потока                            : 3,78 Гбайт (83%)
Язык                                     : English
Default                                  : Да
Forced                                   : Нет
Цветовой диапазон                        : Limited
Основные цвета                           : BT.709
Характеристики трансфера                 : BT.709
Коэффициенты матрицы                     : BT.709
Аудио #1
Идентификатор                            : 2
Формат                                   : AC-3
Формат/Информация                        : Audio Coding 3
Идентификатор кодека                     : A_AC3
Продолжительность                        : 1 ч. 59 м.
Вид битрейта                             : Постоянный
Битрейт                                  : 384 Кбит/сек
Каналы                                   : 6 каналов
Расположение каналов                     : Front: L C R, Side: L R, LFE
Частота                                  : 48,0 КГц
Частота кадров                           : 31,250 кадров/сек (1536 SPF)
Битовая глубина                          : 16 бит
Метод сжатия                             : С потерями
Задержка видео                           : -42 мс.
Размер потока                            : 327 Мбайт (7%)
Заголовок                                : iTunes
Язык                                     : Russian
ServiceKind/String                       : Complete Main
Default                                  : Да
Forced                                   : Нет
Аудио #2
Идентификатор                            : 3
Формат                                   : AAC
Формат/Информация                        : Advanced Audio Codec
Профиль формата                          : LC
Идентификатор кодека                     : A_AAC-2
Продолжительность                        : 1 ч. 59 м.
Битрейт                                  : 127 Кбит/сек
Каналы                                   : 2 канала
Расположение каналов                     : Front: L R
Частота                                  : 48,0 КГц
Частота кадров                           : 46,875 кадров/сек (1024 SPF)
Метод сжатия                             : С потерями
Задержка видео                           : -42 мс.
Размер потока                            : 108 Мбайт (2%)
Заголовок                                : iTunes
Язык                                     : Ukrainian
Default                                  : Нет
Forced                                   : Нет
Аудио #3
Идентификатор                            : 4
Формат                                   : AC-3
Формат/Информация                        : Audio Coding 3
Идентификатор кодека                     : A_AC3
Продолжительность                        : 1 ч. 59 м.
Вид битрейта                             : Постоянный
Битрейт                                  : 384 Кбит/сек
Каналы                                   : 6 каналов
Расположение каналов                     : Front: L C R, Side: L R, LFE
Частота                                  : 48,0 КГц
Частота кадров                           : 31,250 кадров/сек (1536 SPF)
Битовая глубина                          : 16 бит
Метод сжатия                             : С потерями
Задержка видео                           : -42 мс.
Размер потока                            : 327 Мбайт (7%)
Заголовок                                : Original
Язык                                     : English
ServiceKind/String                       : Complete Main
Default                                  : Нет
Forced                                   : Нет
Текст #1
Идентификатор                            : 5
Формат                                   : UTF-8
Идентификатор кодека                     : S_TEXT/UTF8
Идентификатор кодека/Информация          : UTF-8 Plain Text
Продолжительность                        : 1 ч. 55 м.
Битрейт                                  : 0 бит/сек
ElementCount                             : 2
Размер потока                            : 110 байт (0%)
Заголовок                                : forced
Язык                                     : Russian
Default                                  : Да
Forced                                   : Нет
Текст #2
Идентификатор                            : 6
Формат                                   : UTF-8
Идентификатор кодека                     : S_TEXT/UTF8
Идентификатор кодека/Информация          : UTF-8 Plain Text
Продолжительность                        : 1 ч. 57 м.
Битрейт                                  : 95 бит/сек
ElementCount                             : 1577
Размер потока                            : 82,2 Кбайт (0%)
Заголовок                                : full
Язык                                     : Russian
Default                                  : Нет
Forced                                   : Нет
Текст #3
Идентификатор                            : 7
Формат                                   : UTF-8
Идентификатор кодека                     : S_TEXT/UTF8
Идентификатор кодека/Информация          : UTF-8 Plain Text
Продолжительность                        : 1 ч. 48 м.
Битрейт                                  : 63 бит/сек
ElementCount                             : 1539
Размер потока                            : 50,9 Кбайт (0%)
Заголовок                                : full
Язык                                     : English
Default                                  : Нет
Forced                                   : Нет
Текст #4
Идентификатор                            : 8
Формат                                   : UTF-8
Идентификатор кодека                     : S_TEXT/UTF8
Идентификатор кодека/Информация          : UTF-8 Plain Text
Продолжительность                        : 1 ч. 57 м.
Битрейт                                  : 76 бит/сек
ElementCount                             : 1562
Размер потока                            : 66,4 Кбайт (0%)
Заголовок                                : full
Язык                                     : Ukrainian
Default                                  : Нет
Forced                                   : Нет
Меню
00:00:00.000                             : en:1
00:07:17.103                             : en:2
00:17:14.991                             : en:3
00:23:22.232                             : en:4
00:29:23.967                             : en:5
00:42:27.542                             : en:6
00:47:10.156                             : en:7
00:54:25.715                             : en:8
01:03:19.831                             : en:9
01:10:20.792                             : en:10
01:15:50.663                             : en:11
01:24:09.077                             : en:12
01:28:19.284                             : en:13
01:33:47.402                             : en:14
01:42:21.873                             : en:15
01:48:30.825                             : en:16
-Приятного просмотра!!!-
Download / Скачать

Хотите скачать бесплатно? Зарегистрируйтесь на сайте (ссылка на регистрацию). Pirat.ca - самый быстрый торрент трекер в рунете!

Как скачивать  ·   Что такое торрент  ·   Рейтинг и ограничения

Glife

Легенда

Пост 07-Мар-2018 14:31 (спустя 14 часов)

[Q] 

Хороший семейный фильм, современные съемки. Про сюжет говорить нечего...

_________________
Дорогу осилит идущий.
[Профиль]  [ЛС] 

alersander

Корсар

Пост 07-Мар-2018 19:17 (спустя 4 часа)

[Q] 

а все же кто смотрел, отпишитесь!!!! Лови бочку
[Профиль]  [ЛС] 

Кристина119

Гроза морей

Пост 07-Мар-2018 19:33 (спустя 15 минут)

[Q] 

Спасибо большое Лови бочку
[Профиль]  [ЛС] 

Sector_X

311

Пост 08-Мар-2018 20:12 (спустя 1 день)

[Q] 

Супер! Спасибо!!!

_________________

[Профиль]  [ЛС] 

pvm

Флибустьер

Пост 08-Мар-2018 20:54 (спустя 42 минуты)

[Q] 

Продолжение Джуманджи или фильм на ту же тему?
[Профиль]  [ЛС] 

Madwarg

Корсар

Пост 09-Мар-2018 22:11 (спустя 1 день 1 час)

[Q] 

Эх, вспомню юность! :)
[Профиль]  [ЛС] 

Rei1

Легенда

Пост 10-Мар-2018 00:25 (спустя 2 часа 13 минут)

[Q] 

Оригинал мне больше понравился чем этот пересьем дурачества Скалы
[Профиль]  [ЛС] 

xgoliy

Морской Волк

Пост 10-Мар-2018 21:09 (спустя 20 часов)

[Q] 

Веселый ремейк, очень даже понравился
Добавлено спустя 2 минуты 6 секунд:
Веселый ремейк, очень даже понравился Автору респект!!! Лови бочку
[Профиль]  [ЛС] 

grosboy

Гроза морей

Пост 11-Мар-2018 18:01 (спустя 20 часов)

[Q] 

Хороший добрый семейный фильм.

_________________
Щастье есть - его не может не быть...
[Профиль]  [ЛС] 

Рустам2010

Лоцман

Пост 13-Мар-2018 06:35 (спустя 1 день 12 часов)

[Q] 

Лови бочку
[Профиль]  [ЛС] 

redfield

Морской Волк

Пост 16-Мар-2018 21:18 (спустя 3 дня)

[Q] 

На разок, со старым и не сравнить...
[Профиль]  [ЛС] 

Sticher78

Шкипер

Пост 17-Мар-2018 06:26 (спустя 9 часов)

[Q] 

821139На разок, со старым и не сравнить...
" В отличии от цвета - на вкус все фломастеры одинаковые..." (м)
[Профиль]  [ЛС] 

Skala973

Флибустьер

Пост 16-Апр-2018 17:47 (спустя 30 дней)

[Q] 

Исключительно лёгкая и ненапряжная комедия.
Да, там конечно же есть свои штампы, но они больше касаются эпизодов вне основного сюжета.
Вот вечерком посмотреть - самое оно! И кстати, на одном дыхании.
[Профиль]  [ЛС] 

exelero07

Гроза морей

Пост 21-Июл-2018 00:38 (спустя 3 месяца 4 дня)

[Q] 

фильм так себе, сюжет не очень интересен
[Профиль]  [ЛС] 
Показать сообщения:    
Ответить на тему

Текущее время: Сегодня 18:57

Часовой пояс: GMT + 4



Вы не можете начинать темы
Вы не можете отвечать на сообщения
Вы не можете редактировать свои сообщения
Вы не можете удалять свои сообщения
Вы не можете голосовать в опросах
Вы не можете прикреплять файлы к сообщениям
Вы не можете скачивать файлы

Майнать ▼