КЭДА: Квантово Энергетический Двойной Агент / QEDA (Макс Кестнер / Max Kestner) [2017 г., фантастика, WEB-DLRip] VO

Ответить на тему
 
Автор
Сообщение

Пост 07-Мар-2018 18:43

[Q] 

Су-34

Гроза морей

КЭДА: Квантово Энергетический Двойной Агент / QEDA- -Производство: Швеция, Финляндия, Дания
Год выпуска: 2017 г.
Жанр: фантастика
Продолжительность: 01:27:41
Перевод: Любительский (одноголосый, закадровый) [Хихикающий доктор ]-Режиссёр: Макс Кестнер / Max Kestner-В ролях: Карстен Бьорнлунн, София Хелин, Марьяна Янкович, Стина Экблад, Джозеф Моул, Драгомир Мрсич, Элла Солгаард, Анника Веддеркопп, Томас Хван Х. Андерсен-Описание: К 2095 году весь мир отравлен солью из морской воды. Уровень мирового океана поднялся,континенты ушли под воды,вымерли животные и растения.Самой большой ценностью стала пресная вода. Ученые разработали технологию путешествий во времени, в котором перемещался клон человека. Фанг Рунг подвергся молекулярному делению, чтобы отправить своего клона Гордона Томаса в 2017 год. Клон отправляется на поиски дневника ученой Моны Линдквист, которая погибла, прежде чем спасти мир. Когда Фанг Рунг теряет контакт с Гордоном, он не видит альтернативы, кроме как вернуться в 2017 году, пытаясь найти клона, прежде чем наступит эффект бабочки.-
Качество видео: WEB-DLRip
Контейнер: AVI
Видео кодек: XviD
Аудио кодек: AC3
Видео: 720x302 (2.38:1), 600 fps, XviD build 67 ~1322 kbps avg, 0.01 bit/pixel
Аудио: 44.100 kHz, MPEG Layer 3, 2 ch, ~192.00 kbps avg
Cубтитры: отсутствуют
Небольшая реклама в титрах
D:\Torrents\QEDA.2017.Xixidok.avi
General
Complete name : D:\Torrents\QEDA.2017.Xixidok.avi
Format : AVI
Format/Info : Audio Video Interleave
File size : 1.06 GiB
Duration : 1h 27mn
Overall bit rate : 1 727 Kbps
Writing application : VirtualDubMod 1.5.10.3 (build 2550/release)
Writing library : VirtualDubMod build 2550/release
Video #0
ID : 0
Format : MPEG-4 Visual
Codec ID : XVID
Codec ID/Hint : XviD
Duration : 1h 27mn
Bit rate : 1 458 Kbps
Width : 720 pixels
Height : 302 pixels
Display aspect ratio : 2.40:1
Frame rate : 600.000 fps
Color space : YUV
Chroma subsampling : 4:2:0
Compression mode : Lossy
Bits/(Pixel*Frame) : 0.011
Stream size : 915 MiB (84%)
Audio #1
ID : 1
Format : MPEG Audio
Codec ID : 55
Codec ID/Hint : MP3
Duration : 1h 27mn
Bit rate : 192 Kbps
Channel count : 2 channels
Sampling rate : 44.1 KHz
Compression mode : Lossy
Stream size : 121 MiB (11%)
Alignment : Aligned on interleaves
Download / Скачать

Хотите скачать бесплатно? Зарегистрируйтесь на сайте (ссылка на регистрацию). Pirat.ca - самый быстрый торрент трекер в рунете!

Как скачивать  ·   Что такое торрент  ·   Рейтинг и ограничения

Пост 08-Мар-2018 11:56 (спустя 17 часов)

Топик был перенесен из форума Зарубежное Кино (Трюм) в форум Новинки (HD|DVD|BD| TV|SAT|PDTV| - Rips)
erchine
 

VKValiant

Лоцман

Пост 09-Мар-2018 00:59 (спустя 1 день 6 часов)

[Q] 

Кто то посмотрел??? Как фильм?
[Профиль]  [ЛС] 

максим0611

Лоцман

Пост 09-Мар-2018 21:03 (спустя 20 часов)

[Q] 

Что за реклама в отзывах!!! Фу-фу-фу, это-же нормальный пиратский сайт!!! Куда Админы смотрят!!!
[Профиль]  [ЛС] 

Pirat177

Флибустьер

Пост 09-Мар-2018 21:17 (спустя 13 минут)

[Q] 

Гляну на досуге ... Только бы перевод нормальный был
[Профиль]  [ЛС] 

MaK1auD

Шкипер

Пост 09-Мар-2018 23:46 (спустя 2 часа 29 минут)

[Q] 

Фильм - унылейшее скучное г..о. Хватило минут на 30, все ждал действия. Не дождался.
[Профиль]  [ЛС] 

Мания величия

Морской Волк

Пост 11-Мар-2018 19:19 (спустя 1 день 19 часов)

[Q] 

очень на любителя ну очень......

_________________
[Профиль]  [ЛС] 

feldorius

Корсар

Пост 12-Мар-2018 08:46 (спустя 13 часов)

[Q] 

"Квантово Энергетический" - только из-за этого словосочетания не буду качать. Стремное оно )
[Профиль]  [ЛС] 

lightmaster

Гроза морей

Пост 12-Мар-2018 22:09 (спустя 13 часов)

[Q] 

QEDA -кеда одна.А две - кеды.Полный шлак
[Профиль]  [ЛС] 

usya5

Корсар

Пост 12-Мар-2018 23:44 (спустя 1 час 35 минут)

[Q] 

820697.... Хватило минут на 30, все ждал действия. Не дождался.
тоже не осилил досмотреть..
[Профиль]  [ЛС] 

zvernight

Гроза морей

Пост 16-Мар-2018 23:23 (спустя 3 дня)

[Q] 

Спасибо за отзывы, на кинопоиске пусто.
[Профиль]  [ЛС] 

bull271174New

Штурман

Пост 24-Мар-2018 11:29 (спустя 7 дней)

[Q] 

Досмотрел. Офигел.
[Профиль]  [ЛС] 

centr65

Лоцман

Пост 02-Апр-2018 20:26 (спустя 9 дней)

[Q] 

А я опупел нафиг!
[Профиль]  [ЛС] 

realleo

Корсар

Пост 03-Апр-2018 21:19 (спустя 1 день)

[Q] 

спасибо за отзывы, спасли мои два часа :)
[Профиль]  [ЛС] 

studentUA

Корсар

56

Пост 05-Апр-2018 03:30 (спустя 1 день 6 часов)

[Q] 

и как кифильмец?
[Профиль]  [ЛС] 

Nik DeBori

Корсар

Пост 05-Апр-2018 11:13 (спустя 7 часов)

[Q] 

820836"Квантово Энергетический" - только из-за этого словосочетания не буду качать. Стремное оно )
Возможно в этом что-то есть!
[Профиль]  [ЛС] 
Показать сообщения:    
Ответить на тему

Текущее время: Сегодня 05:37

Часовой пояс: GMT + 4



Вы не можете начинать темы
Вы не можете отвечать на сообщения
Вы не можете редактировать свои сообщения
Вы не можете удалять свои сообщения
Вы не можете голосовать в опросах
Вы не можете прикреплять файлы к сообщениям
Вы не можете скачивать файлы

Майнать ▼