Женщины против мужчин.Крымские каникулы (Леонид Марголин) [2017 г., Комедия, Мелодрама, WEB-DL, 1080p]

Ответить на тему
 
Автор
Сообщение

Пост 08-Мар-2018 08:51

[Q] 

AlexDjas

Гроза морей

--Женщины против мужчин.Крымские каникулы-- Производство: Россия, Fresh Film
Режиссёр: Леонид Марголин
Жанр: Комедия, Мелодрама
Год выпуска: 2017 г.
Продолжительность: 01:15:51
Российская премьера: 8 февраля 2018, «Каропрокат»
В ролях: Настасья Самбурская, Наталья Рудова, Мария Кравченко, Александр Головин, Денис Косяков, Роман Юнусов, Мария Горбань, Вадим Галыгин--Описание: Отправиться в отпуск сразу после развода — довольно заманчивая идея. Особенно, если за компанию можно прихватить двух своих лучших приятелей. Но, когда в том же отеле встречаешь свою бывшую жену-красавицу, то это к неприятностям. А если экс-супруга оказывается там же с двумя своими лучшими подругами, которые к тому же являются бывшими женами твоих друзей, — то легкая месть за старые обиды превращается в увлекательную «войну» и незабываемые приключения.--
Качество видео: WEB-DL
Контейнер: MKV
Стандарт разрешения: 1080p
Видео кодек: H264/AVC
Аудио кодек: AC3
Видео: 1920x802 (2.40:1), 4726 kbps, 24000 (fps)
Аудио: 48 kHz, AC3 Dolby Digital, 2/0 (L,R) ch, ~384 kbps
Cубтитры: отсутствуют
Общее
Уникальный идентификатор : 209611763214215145412646262259231545950 (0x9DB1C1D462DEAD579D8CFEE52DCCDA5E)
Полное имя : G:\Фильмы\Женщины.против.мужчин.Крымские.каникулы.2017.WEB-DL.[1080p][pirat.ca].mkv
Формат : Matroska
Версия формата : Version 2
Размер файла : 2,71 Гбайт
Продолжительность : 1 ч. 15 м.
Общий поток : 5112 Кбит/сек
Дата кодирования : UTC 2018-03-07 19:40:22
Программа кодирования : mkvmerge v8.3.0 ('Over the Horizon') 64bit
Библиотека кодирования : libebml v1.3.1 + libmatroska v1.4.2
Видео
Идентификатор : 1
Формат : AVC
Формат/Информация : Advanced Video Codec
Профиль формата : [email protected]
Настройки формата : CABAC / 5 Ref Frames
Параметр CABAC формата : Да
Параметр RefFrames формата : 5 кадров
Идентификатор кодека : V_MPEG4/ISO/AVC
Продолжительность : 1 ч. 15 м.
Битрейт : 4726 Кбит/сек
Ширина : 1920 пикселей
Высота : 802 пикселя
Соотношение сторон : 2,40:1
Режим частоты кадров : Постоянный
Частота кадров : 24,000 кадра/сек
Цветовое пространство : YUV
Субдискретизация насыщенности : 4:2:0
Битовая глубина : 8 бит
Тип развёртки : Прогрессивная
Бит/(Пиксели*Кадры) : 0.128
Размер потока : 2,50 Гбайт (92%)
Язык : English
Default : Да
Forced : Нет
Цветовой диапазон : Limited
Основные цвета : BT.709
Характеристики трансфера : BT.709
Коэффициенты матрицы : BT.709
Аудио
Идентификатор : 2
Формат : AC-3
Формат/Информация : Audio Coding 3
Идентификатор кодека : A_AC3
Продолжительность : 1 ч. 15 м.
Вид битрейта : Постоянный
Битрейт : 384 Кбит/сек
Каналы : 2 канала
Расположение каналов : Front: L R
Частота : 48,0 КГц
Частота кадров : 31,250 кадров/сек (1536 SPF)
Битовая глубина : 16 бит
Метод сжатия : С потерями
Размер потока : 208 Мбайт (8%)
Язык : Russian
ServiceKind/String : Complete Main
Default : Да
Forced : Нет
Download / Скачать

Хотите скачать бесплатно? Зарегистрируйтесь на сайте (ссылка на регистрацию). Pirat.ca - самый быстрый торрент трекер в рунете!

Как скачивать  ·   Что такое торрент  ·   Рейтинг и ограничения

Пост 08-Мар-2018 11:59 (спустя 3 часа)

Топик был перенесен из форума Наше кино (Трюм) в форум Новинки (BD/WEB-DL/HDTV/DVD)
erchine
 

Sector_X

311

Пост 08-Мар-2018 20:14 (спустя 11 часов)

[Q] 

Автору респект!!! Спасибо!!!

_________________

[Профиль]  [ЛС] 

moscowpan

Гроза морей

4450

Пост 08-Мар-2018 21:24 (спустя 1 час 10 минут)

[Q] 

на 8 марта пойдёт

_________________
[Профиль]  [ЛС] 

Ruslan2800

Штурман

Пост 09-Мар-2018 14:29 (спустя 17 часов)

[Q] 

Отвратительно-фальшивая игра актеров, не выдержал и 20 минут
[Профиль]  [ЛС] 

balex26

Корсар

Пост 10-Мар-2018 03:27 (спустя 12 часов)

[Q] 

А в чём собсно дело? Крымнаш ?!? Прохожу мимо...
[Профиль]  [ЛС] 

a_kasheev

Лоцман

Пост 10-Мар-2018 17:12 (спустя 13 часов)

[Q] 

Достаточно прочитать имя режиссера, чтобы понять что это шлак...
[Профиль]  [ЛС] 

ohhmes

Морской Волк

3

Пост 10-Мар-2018 22:26 (спустя 5 часов)

[Q] 

наши умеют уг снять, при поддержке минкульта )
[Профиль]  [ЛС] 

alersander

Корсар

Пост 10-Мар-2018 23:20 (спустя 54 минуты)

[Q] 

посмотрю отпишусь Лови бочку
[Профиль]  [ЛС] 

ZenonZenonZenon

Штурман

Пост 11-Мар-2018 14:22 (спустя 15 часов)

[Q] 

Бэд Комедиану работа нашлась.
[Профиль]  [ЛС] 

Sharifulla

Корсар

Пост 11-Мар-2018 22:59 (спустя 8 часов)

[Q] 

Автору спасибо за труды, но фильм по моему субьективному мнению шлак.
[Профиль]  [ЛС] 

AlexDjas ®

Гроза морей

6569

Пост 12-Мар-2018 11:05 (спустя 12 часов)

[Q] 

Sharifulla, Всегда так... Кому нравятся фильмы, кому нет. У каждого свое мнение. Может потом что лучше снимут)))

_________________
- Один терапевт - это 1024 гигапевта, или 1048576 мегапевтов!
[Профиль]  [ЛС] 

ciddharta

Штурман

Пост 22-Мар-2018 09:38 (спустя 9 дней)

[Q] 

как всегда полный бред!
[Профиль]  [ЛС] 

grosboy

Гроза морей

Пост 22-Мар-2018 12:55 (спустя 3 часа)

[Q] 

Честно говоря слабоват. Комедия тоже как-то не очень. На один раз глянуть и то под очень хорошее настроение... Как-то так.

_________________
Щастье есть - его не может не быть...
[Профиль]  [ЛС] 

tilebok

Корсар

Пост 24-Мар-2018 08:20 (спустя 1 день 19 часов)

[Q] 

Есть смысл смотреть?
[Профиль]  [ЛС] 

Kir_18

Штурман

Пост 24-Мар-2018 13:06 (спустя 4 часа)

[Q] 

качну, смотреть все равно нечего..
[Профиль]  [ЛС] 

tomaszzzz

Шкипер

Пост 24-Мар-2018 19:25 (спустя 6 часов)

[Q] 

Шляпа для ваты.....
[Профиль]  [ЛС] 

SHERHAN

688

Пост 24-Мар-2018 20:58 (спустя 1 час 33 минуты)

[Q] 

очередной высер российского кинопрома

_________________
Рыжий хищник, полосатый,
В меру наглый и усатый,
Днём и ночью он не спит,
Зорко в монитор глядит!
[Профиль]  [ЛС] 

xgoliy

Морской Волк

Пост 28-Мар-2018 15:45 (спустя 3 дня)

[Q] 

Чета как то не айс Трафик потрачен зря!
[Профиль]  [ЛС] 

feldorius

Корсар

Пост 08-Апр-2018 11:21 (спустя 10 дней)

[Q] 

Верните полтора часа моего, потеррянного на сей шедевр, времени!
Бред.
[Профиль]  [ЛС] 

lihachov

Штурман

Пост 08-Апр-2018 12:31 (спустя 1 час 10 минут)

[Q] 

Это рекламный ролик отеля,а не фильм....
[Профиль]  [ЛС] 

ciddharta

Штурман

Пост 21-Апр-2018 14:19 (спустя 13 дней)

[Q] 

тужились тужились все от режиссеров, сценаристов и актеров, в итоге вышло таки большое ГО УНО
[Профиль]  [ЛС] 

tse

Корсар

Пост 14-Май-2018 19:59 (спустя 23 дня)

[Q] 

Вот стоило ли сниматься в таком гуане, чтоб попасть на сайт Миротворец и иметь потом проблемы с визами?
[Профиль]  [ЛС] 

Skala973

Флибустьер

Пост 15-Май-2018 13:57 (спустя 17 часов)

[Q] 

За раздачу спасибо.
Но фильмом это назвать нельзя. Такое премерзейшее зрелище что подозрения об отмывании денег через кинокомпании, крепнет всё больше и больше.
Смотреть можно только на перемотке.
[Профиль]  [ЛС] 

lexaspirit

Пост 10-Окт-2018 21:46 (спустя 4 месяца 26 дней)

[Q] 

Ничего интересного. Ни одной нормальной шутки. Не стоит тратить время на просмотр этого фильма

_________________
-------------------- ----------------------
[Профиль]  [ЛС] 
Показать сообщения:    
Ответить на тему

Текущее время: Сегодня 04:42

Часовой пояс: GMT + 4



Вы не можете начинать темы
Вы не можете отвечать на сообщения
Вы не можете редактировать свои сообщения
Вы не можете удалять свои сообщения
Вы не можете голосовать в опросах
Вы не можете прикреплять файлы к сообщениям
Вы не можете скачивать файлы

Майнать ▼