Приключения Паддингтона 2 / Paddington 2 (Пол Кинг/Paul King) [2017 г., фэнтези, комедия, семейный,, WEB-DLRip, 1080p] Dub

Ответить на тему
 
Автор
Сообщение

Пост 11-Мар-2018 11:15

[Q] 

AlexDjas

Гроза морей

--Приключения Паддингтона 2 / Paddington 2 -- Производство: Великобритания, Франция, США
Год выпуска: 2017 г.
Жанр: фэнтези, комедия, семейный,
Продолжительность: 01:43:08
Мировая премьера: 5 ноября 2017,
Российская премьера: 20 января 2018, «Вольга»
Перевод: Профессиональный (полное дублирование) [(Чистый звук)]
Режиссёр: Пол Кинг/Paul King--В ролях: Бен Уишоу, Хью Грант, Брендан Глисон, Хью Бонневилль, Салли Хокинс, Джули Уолтерс, Джим Бродбент, Питер Капальди, Мадлен Харрис, Сэмюэл Джослин--Описание: В антикварном магазине Лондона обаятельный и хорошо воспитанный медведь Паддингтон находит уникальную старинную книгу. Пока он изо всех своих медвежьих сил старается накопить на нее деньги, редчайшее издание внезапно похищают. Паддингтон оказывается вовлечен в аферу века, затеянную знаменитым, но вышедшим в тираж актером, который ныне рекламирует собачьи консервы, а свой талант к перевоплощению использует в охоте за сокровищами, спрятанными по всему Лондону.--
Качество видео: WEB-DLRip
Контейнер: MKV
Стандарт разрешения: 1080p
Видео кодек: H.264
Аудио кодек: AC3
Видео: AVC/H.264, 1920x802 (2.40:1), 5004 kbps, 23.976 fps
Аудио: 48 kHz, AC3 Dolby Digital, 2/0 (L,R) ch, ~384 kbps
Cубтитры: отсутствуют
Общее
Уникальный идентификатор : 224639075230415945983955999357067792337 (0xA8FFE983BF9920F0BF3CF32360230FD1)
Полное имя : G:\Фильмы\Paddington.2.2017.WEB-DLRip.1080p.[pirat.ca].mkv
Формат : Matroska
Версия формата : Version 4 / Version 2
Размер файла : 3,88 Гбайт
Продолжительность : 1 ч. 43 м.
Режим общего битрейта : Переменный
Общий поток : 5390 Кбит/сек
Дата кодирования : UTC 2018-03-05 15:34:13
Программа кодирования : mkvmerge v8.3.0 ('Over the Horizon') 64bit
Библиотека кодирования : libebml v1.3.1 + libmatroska v1.4.2
Видео
Идентификатор : 2
Формат : AVC
Формат/Информация : Advanced Video Codec
Профиль формата : [email protected]
Настройки формата : CABAC / 4 Ref Frames
Параметр CABAC формата : Да
Параметр RefFrames формата : 4 кадра
Идентификатор кодека : V_MPEG4/ISO/AVC
Продолжительность : 1 ч. 43 м.
Вид битрейта : Переменный
Битрейт : 5004 Кбит/сек
Максимальный битрейт : 5600 Кбит/сек
Ширина : 1920 пикселей
Высота : 802 пикселя
Соотношение сторон : 2,40:1
Режим частоты кадров : Постоянный
Частота кадров : 23,976 (23976/1000) кадра/сек
Частота кадров в оригинале : 23,976 (24000/1001) кадра/сек
Стандарт вещания : Component
Цветовое пространство : YUV
Субдискретизация насыщенности : 4:2:0
Битовая глубина : 8 бит
Тип развёртки : Прогрессивная
Бит/(Пиксели*Кадры) : 0.136
Размер потока : 3,61 Гбайт (93%)
Язык : Russian
Default : Да
Forced : Нет
Цветовой диапазон : Limited
Основные цвета : BT.709
Характеристики трансфера : BT.709
Коэффициенты матрицы : BT.709
Аудио
Идентификатор : 1
Формат : AC-3
Формат/Информация : Audio Coding 3
Идентификатор кодека : A_AC3
Продолжительность : 1 ч. 43 м.
Вид битрейта : Постоянный
Битрейт : 384 Кбит/сек
Каналы : 2 канала
Расположение каналов : Front: L R
Частота : 48,0 КГц
Частота кадров : 31,250 кадров/сек (1536 SPF)
Битовая глубина : 16 бит
Метод сжатия : С потерями
Размер потока : 283 Мбайт (7%)
Язык : English
ServiceKind/String : Complete Main
Default : Да
Forced : Нет
--Внимание!!! Присутствуют текстовые вставки рекламы!!!--
Download / Скачать

Хотите скачать бесплатно? Зарегистрируйтесь на сайте (ссылка на регистрацию). Pirat.ca - самый быстрый торрент трекер в рунете!

Как скачивать  ·   Что такое торрент  ·   Рейтинг и ограничения

black63

Шкипер

Пост 11-Мар-2018 16:00 (спустя 4 часа)

[Q] 

Как качество качать стоит?
[Профиль]  [ЛС] 

Blazer88

Штурман

Пост 12-Мар-2018 22:51 (спустя 1 день 6 часов)

[Q] 

реклама вшита
[Профиль]  [ЛС] 

SwordFish

Корсар

1318

Пост 02-Май-2018 14:16 (спустя 1 месяц 20 дней)

[Q] 

Прикольный фильм, но как по мне, то первая часть была лучше.
Спасибо!!! Всем качать!!!
[Профиль]  [ЛС] 

_8165

Корсар

Пост 02-Май-2018 14:46 (спустя 30 минут)

[Q] 

Фильм шикарный, по мне так вторая лучше :-) Автору респект!!!
[Профиль]  [ЛС] 
Показать сообщения:    
Ответить на тему

Текущее время: Сегодня 18:56

Часовой пояс: GMT + 4



Вы не можете начинать темы
Вы не можете отвечать на сообщения
Вы не можете редактировать свои сообщения
Вы не можете удалять свои сообщения
Вы не можете голосовать в опросах
Вы не можете прикреплять файлы к сообщениям
Вы не можете скачивать файлы

Майнать ▼