Я худею (2018) TS (Алексей Нужный) [2018 г., комедия, TeleSynch]

Ответить на тему
 
Автор
Сообщение

Пост 11-Мар-2018 14:48

[Q] 

Су-34

Гроза морей

Я худею«Хорош себя стесняться!»
-
Год выпуска: 2018
Страна: Россия
Жанр: комедия
Продолжительность: 01:24:18- В ролях: Александра Бортич, Ирина Горбачева, Сергей Шнуров, Евгений Кулик, Роман Курцын, Александр Пташенчук, Елена Валюшкина, Валерия Дергилева, Андрей Трушин- Описание: В жизни Ани есть две главные любви — её парень Женя и еда. Из-за еды они и расстаются: Жене совсем не нравится, как Аня стала выглядеть. Аня не готова просто сдаться. При поддержке лучшей подруги и увлечённого здоровым образом жизни добряка Коли она пускается в увлекательное приключение, чтобы похудеть и обрести любовь и счастье.-Доп. информация: https://www.kinopoisk.ru/film/ya-khudeyu-2018-842037/
Семпл: http://multi-up.com/1190228- Качество: TS
Формат: AVI
Видео кодек: XviD
Аудио кодек: AC3
Видео: XviD, 720x304 (2.35:1), 1927 kbps, 23,976 fps, 0,367 bpp
Аудио: AC3 / 2.0 / 48 kHz / 384 kbps /-
Общее
Полное имя : Ya.Hudeu.2O18.O.TS.14OOMB.avi
Формат : AVI
Формат/Информация : Audio Video Interleave
Размер файла : 1,37 Гбайт
Продолжительность : 1 ч. 24 м.
Общий поток : 2321 Кбит/сек
Программа кодирования : VirtualDubMod 1.5.10.2 (build 2540/release)
Библиотека кодирования : VirtualDubMod build 2540/release
Видео
Идентификатор : 0
Формат : MPEG-4 Visual
Профиль формата : Advanced [email protected]
Параметр BVOP формата : 2
Параметр QPel формата : Нет
Параметр GMC формата : Без точки перехода
Параметр матрицы формата : Default (MPEG)
Идентификатор кодека : XVID
Идентификатор кодека/Подсказка : XviD
Продолжительность : 1 ч. 24 м.
Битрейт : 1928 Кбит/сек
Ширина : 720 пикселей
Высота : 304 пикселя
Соотношение сторон : 2,35:1
Частота кадров : 23,976 (24000/1001) кадра/сек
Цветовое пространство : YUV
Субдискретизация насыщенности : 4:2:0
Битовая глубина : 8 бит
Тип развёртки : Прогрессивная
Метод сжатия : С потерями
Бит/(Пиксели*Кадры) : 0.367
Размер потока : 1,14 Гбайт (83%)
Библиотека кодирования : XviD 1.2.1 (UTC 2008-12-04)
Аудио
Идентификатор : 1
Формат : AC-3
Формат/Информация : Audio Coding 3
Параметр Endianness формата : Big
Идентификатор кодека : 2000
Продолжительность : 1 ч. 24 м.
Вид битрейта : Постоянный
Битрейт : 384 Кбит/сек
Каналы : 2 канала
Расположение каналов : Front: L R
Частота : 48,0 КГц
Частота кадров : 31,250 кадров/сек (1536 spf)
Битовая глубина : 16 бит
Метод сжатия : С потерями
Размер потока : 232 Мбайт (17%)
Выравнивание : Разделение по промежуткам
Продолжительность промежутка : 42 мс. (1,00 видеокадр)
Время предзагрузки промежутка : 500 мс.
ServiceKind/String : Complete Main
Download / Скачать

Хотите скачать бесплатно? Зарегистрируйтесь на сайте (ссылка на регистрацию). Pirat.ca - самый быстрый торрент трекер в рунете!

Как скачивать  ·   Что такое торрент  ·   Рейтинг и ограничения



Последний раз редактировалось: Су-34 (2018-03-12 18:59), всего редактировалось 2 раз(а)

usya5

Корсар

Пост 11-Мар-2018 15:10 (спустя 22 минуты)

[Q] 

Лови бочку ...но картинка не обнадеживает
[Профиль]  [ЛС] 

EDVAR

Легенда

Пост 11-Мар-2018 15:46 (спустя 36 минут)

[Q] 

Благодарю! Посмотрим.

_________________
"Как других судить-вы судьи.Как себя-вы адвокаты"
[Профиль]  [ЛС] 

mb1969

Корсар

Пост 11-Мар-2018 16:55 (спустя 1 час 9 минут)

[Q] 

По скриншотам голимый camRip
[Профиль]  [ЛС] 

Су-34 ®

Гроза морей

15258

Пост 11-Мар-2018 19:25 (спустя 2 часа 29 минут)

[Q] 

820791По скриншотам голимый camRip
По аватару голимый ЛОХ!
!Андря писал(а):

за оскорбление
[Профиль]  [ЛС] 

D_Ex

Корсар

103

Пост 18-Мар-2018 22:42 (спустя 7 дней)

[Q] 

Я единственный, кто первый раз название фильма с ошибкой прочитал? ;)
[Профиль]  [ЛС] 

olegpavlov

Шкипер

Пост 19-Мар-2018 19:50 (спустя 21 час)

[Q] 

фильм не очень, а качество смотреть не возможно ,только зрение портить. Трафик потрачен зря!
[Профиль]  [ЛС] 

Skala973

Флибустьер

Пост 11-Апр-2018 20:46 (спустя 23 дня)

[Q] 

Странная ситуация.
Вроде бы фильм уже давно вышел, а до сих пор качества не появилось.
ну что ещё надо?
На разную иностранную бурду, удаётся сделать копию а вот комедию, чтобы под пивасик вечерком перед телевизором отдохнуть, так нет ещё.
[Профиль]  [ЛС] 

exelero07

Гроза морей

Пост 20-Июл-2018 22:14 (спустя 3 месяца 9 дней)

[Q] 

история интересная, смотреть можно
[Профиль]  [ЛС] 
Показать сообщения:    
Ответить на тему

Текущее время: Сегодня 07:29

Часовой пояс: GMT + 4



Вы не можете начинать темы
Вы не можете отвечать на сообщения
Вы не можете редактировать свои сообщения
Вы не можете удалять свои сообщения
Вы не можете голосовать в опросах
Вы не можете прикреплять файлы к сообщениям
Вы не можете скачивать файлы

Майнать ▼