Место встречи / The Place (Паоло Дженовезе / Paolo Genovese) [2017, драма, комедия, HDRip] Дубляж - [Чистый звук]

Ответить на тему
 
Автор
Сообщение

Пост 23-Мар-2018 22:31

[Q] 

Су-34

Гроза морей

Место встречи / The Place -««Там, где исполняются желания»»- -
Год выпуска: 2017
Страна: Италия
Жанр: драма, комедия
Продолжительность: 01:43:21
Перевод: Дубляж - [Чистый звук]
Субтитры: нет- Режиссер: Паоло Дженовезе / Paolo Genovese- В ролях:
-Валерио Мастандреа (L'uomo), Марко Джаллини (Ettore), Алессандро Борги (Fulvio), Сильвио Муччино (Alex), Альба Рорвахер (Suor Chiara), Виттория Пуччини (Azzurra), Сабрина Ферилли (Angela), Сильвия д’Амико (Martina), Рокко Папалео (Odoacre), Джулия Лаццарини (Marcella), Виничио Маркиони (Gigi), Марианн Мираж- Описание:
Девять человек приходят в одно и то же место на встречу к таинственному Незнакомцу в надежде, что он исполнит их сокровенные желания. Загадочный мужчина может претворить в жизнь всё, что они захотят. Но за определенную цену... В обмен на осуществление мечты, каждому из гостей предлагается выполнить необычные задания. Чем сложнее исполнение этой мечты, тем выше цена. Каждый из героев должен сделать свой выбор - как далеко он готов зайти, чтобы получить желаемое. И так ли случайны судьбы посетителей этого места встречи?-Есть реклама!
kinopoisk
imdb
Сэмпл- Качество: HDRip
Формат: AVI
Видео кодек: XviD
Аудио кодек: AC3
Видео: XviD, 720x304 (2.35:1), 1558 kbps, 25 fps, 0,285 bpp
Аудио: AC3 / 2.0 / 48 kHz / 448 kbps /-
General
Complete name : D:\Torrents\The.Place.2017.D.HDRip.14OOMB.avi
Format : AVI
Format/Info : Audio Video Interleave
File size : 1.46 GiB
Duration : 1 h 43 min
Overall bit rate : 2 016 kb/s
Writing application : VirtualDubMod 1.5.10.2 (build 2540/release)
Writing library : VirtualDubMod build 2540/release
Video
ID : 0
Format : MPEG-4 Visual
Format profile : Advanced [email protected]
Format settings, BVOP : 2
Format settings, QPel : No
Format settings, GMC : No warppoints
Format settings, Matrix : Custom
Codec ID : XVID
Codec ID/Hint : XviD
Duration : 1 h 43 min
Bit rate : 1 558 kb/s
Width : 720 pixels
Height : 304 pixels
Display aspect ratio : 2.35:1
Frame rate : 25.000 FPS
Color space : YUV
Chroma subsampling : 4:2:0
Bit depth : 8 bits
Scan type : Progressive
Compression mode : Lossy
Bits/(Pixel*Frame) : 0.285
Stream size : 1.13 GiB (77%)
Writing library : XviD 1.2.1 (UTC 2008-12-04)
Audio
ID : 1
Format : AC-3
Format/Info : Audio Coding 3
Mode extension : CM (complete main)
Format settings, Endianness : Big
Codec ID : 2000
Duration : 1 h 43 min
Bit rate mode : Constant
Bit rate : 448 kb/s
Channel(s) : 2 channels
Channel positions : Front: L R
Sampling rate : 48.0 kHz
Frame rate : 31.250 FPS (1536 spf)
Compression mode : Lossy
Stream size : 331 MiB (22%)
Alignment : Split accross interleaves
Interleave, duration : 40 ms (1.00 video frame)
Interleave, preload duration : 500 ms
Download / Скачать

Хотите скачать бесплатно? Зарегистрируйтесь на сайте (ссылка на регистрацию). Pirat.ca - самый быстрый торрент трекер в рунете!

Как скачивать  ·   Что такое торрент  ·   Рейтинг и ограничения

seqa5s

Лоцман

Пост 31-Мар-2018 12:45 (спустя 7 дней)

[Q] 

Замечательный! спокойный душевный фильм! хороший смысл!!
[Профиль]  [ЛС] 

feldorius

Корсар

Пост 01-Апр-2018 19:28 (спустя 1 день 6 часов)

[Q] 

Мне понравился фильм. Оригинальный сюжет, ничего лишнего.
Рекомендую!
[Профиль]  [ЛС] 

GalanT

Морской Волк

Пост 01-Апр-2018 22:31 (спустя 3 часа)

[Q] 

Хорошее философское кино. Фильм, после которого ещё какое-то время ДУМАЕШЬ: о персонажах, их поступках, представляешь себя на их месте и т.п. А это редкость среди современного кинематографа.
В общем, рекомендую к просмотру всем, кто уже вырос из школьного возраста и у кого чуть поутихли гормональные бури в организме.
[Профиль]  [ЛС] 

Nik DeBori

Корсар

Пост 05-Апр-2018 11:47 (спустя 3 дня)

[Q] 

Фильм хорош, и это правда! Спасибо! Лови бочку
[Профиль]  [ЛС] 

ciddharta

Штурман

Пост 21-Апр-2018 14:16 (спустя 16 дней)

[Q] 

сюжет бомба! каким сложным бы не был выбор человека , который двигается к своей цели, главное не терять человечности , вот только для меня остался открытым вопрос- : а кем все таки является главный герой?
[Профиль]  [ЛС] 

Skala973

Флибустьер

Пост 25-Апр-2018 12:18 (спустя 3 дня)

[Q] 

Согласен, сюжет хорош. Но это в некотором смысле повтор. Был же фильм корейский, про "13 заданий". Так только всё проще было устроено.
Но больше об этом говорится в "Шагреневой коже". У Конан Дойля есть рассказ про бутылку исполняющую желания. Есть фильм про чайник, которые выдавал деньги, когда кто-то испытывал боль.
Гораздо хуже, что определение "гомосексуальное".
Ну кто такой гомосек? Не баба, и не мужик.
Вот и здесь. Определитесь, это комедия или трагедия!
[Профиль]  [ЛС] 

алексейка121212

Штурман

Пост 01-Май-2018 18:33 (спустя 6 дней)

[Q] 

не раздается. не раздается.
[Профиль]  [ЛС] 

tomatto

Корсар

Пост 05-Май-2018 22:07 (спустя 4 дня)

[Q] 

Отличное кино! давненько не получал столько удовольствия...спасибо за релиз!
[Профиль]  [ЛС] 

Mustafa Sazont

Корсар

Пост 11-Май-2018 14:24 (спустя 5 дней)

[Q] 

Зачетное кино!
[Профиль]  [ЛС] 
Показать сообщения:    
Ответить на тему

Текущее время: Сегодня 05:45

Часовой пояс: GMT + 4



Вы не можете начинать темы
Вы не можете отвечать на сообщения
Вы не можете редактировать свои сообщения
Вы не можете удалять свои сообщения
Вы не можете голосовать в опросах
Вы не можете прикреплять файлы к сообщениям
Вы не можете скачивать файлы

Майнать ▼