Профессор Марстон и Чудо-женщины / Professor Marston and the Wonder Women (Анджела Робинсон / Angela Robinson) [2017 г., драма, биография, BDRip-AVC] Dub + Original (Eng) + Subs (Rus, Eng)

Ответить на тему
 
Автор
Сообщение

Пост 01-Апр-2018 22:43

[Q] 

moscowpan

Гроза морей

-Профессор Марстон и Чудо-женщины / Professor Marston and the Wonder Women-- Производство: США / Boxspring Entertainment, Opposite Field Pictures...
Год выпуска: 2017 г.
Жанр: драма, биография
Продолжительность: 01:48:26
Мировая премьера: 9 сентября 2017
Перевод: Профессиональный (полное дублирование) [Blu-ray CEE]
Оригинальный аудиопоток: английский
Режиссёр: Анджела Робинсон / Angela Robinson-В ролях: Люк Эванс (William Moulton Marston), Ребекка Холл (Elizabeth Marston), Белла Хиткот (Olive Byrne), Конни Бриттон (Josette Frank), Моника Джордано (Mary), Джей Джей Филд (Charles Guyette), Крис Конрой (Brant Gregory), Оливер Платт (M.C. Gaines), Мэгги Кастл (Dorothy Roubicek), Алекса Хэвинс (Molly Stewart), Sharon Kubo (Kate), Элли Галлерани (Sara)-Описание: Гарвардский ученый-психолог Уильям Марстон оставил след в истории, как изобретатель детектора лжи и пионер теории феминизма. Создатель комиксов Макс Гейнс предложил Марстону, высоко ставившему роль комиксов в поп-культурном и идеалогическом пространстве, придумать супергероя слабого пола.-
Качество видео: BDRip-AVC
Контейнер: MKV
Видео кодек: MPEG4 AVC
Аудио кодек: AAC
Видео: AVC, 1140x476 (2.40:1), 2020 kbps, 23,976 fps
Аудио: AC3 / 5.1 / 48 kHz / 448 kbps / 16 bit | RUS
Аудио #2: AC3 / 5.1 / 48 kHz / 448 kbps / 16 bit | ENG
Cубтитры: русские (полные + форс.), английские (Full), английские (SDH)
Общее
Уникальный идентификатор : 227942704275423961028440342138380416752 (0xAB7C2B008822D517A98D6484C65CF6F0)
Полное имя : D:\Фильмы\Профессор Марстон и Чудо-женщины _ Professor Marston and the Wonder Women (2017) BDRip-AVC.mkv
Формат : Matroska
Версия формата : Version 4 / Version 2
Размер файла : 2,18 Гбайт
Продолжительность : 1 ч. 48 м.
Общий поток : 2881 Кбит/сек
Название фильма : Professor Marston and the Wonder Women (2017)
Дата кодирования : UTC 2018-04-01 17:17:49
Программа кодирования : mkvmerge v5.9.0 ('On The Loose') built on Dec 15 2012 16:39:58
Библиотека кодирования : libebml v1.3.0 + libmatroska v1.4.0
Видео
Идентификатор : 1
Формат : AVC
Формат/Информация : Advanced Video Codec
Профиль формата : High@L4.1
Настройки формата : CABAC / 10 Ref Frames
Параметр CABAC формата : Да
Параметр RefFrames формата : 10 кадров
Идентификатор кодека : V_MPEG4/ISO/AVC
Продолжительность : 1 ч. 48 м.
Битрейт : 2020 Кбит/сек
Ширина : 1140 пикселей
Высота : 476 пикселей
Соотношение сторон : 2,40:1
Режим частоты кадров : Постоянный
Частота кадров : 23,976 (24000/1001) кадра/сек
Цветовое пространство : YUV
Субдискретизация насыщенности : 4:2:0
Битовая глубина : 8 бит
Тип развёртки : Прогрессивная
Бит/(Пиксели*Кадры) : 0.155
Размер потока : 1,46 Гбайт (67%)
Заголовок : potroks
Библиотека кодирования : x264 core 155 r2901M 7d0ff22
Настройки программы : cabac=1 / ref=10 / deblock=1:-1:-1 / analyse=0x3:0x131 / me=umh / subme=11 / psy=1 / psy_rd=0.98:0.00 / mixed_ref=1 / me_range=48 / chroma_me=1 / trellis=2 / 8x8dct=1 / cqm=0 / deadzone=21,11 / fast_pskip=0 / chroma_qp_offset=-2 / threads=9 / lookahead_threads=2 / sliced_threads=0 / nr=0 / decimate=0 / interlaced=0 / bluray_compat=0 / constrained_intra=0 / bframes=12 / b_pyramid=2 / b_adapt=2 / b_bias=0 / direct=3 / weightb=1 / open_gop=0 / weightp=2 / keyint=240 / keyint_min=23 / scenecut=40 / intra_refresh=0 / rc_lookahead=100 / rc=2pass / mbtree=0 / bitrate=2020 / ratetol=1.0 / qcomp=0.70 / qpmin=0 / qpmax=69 / qpstep=4 / cplxblur=20.0 / qblur=0.5 / vbv_maxrate=50000 / vbv_bufsize=50000 / nal_hrd=none / filler=0 / ip_ratio=1.40 / pb_ratio=1.30 / aq=2:0.80
Язык : English
Default : Да
Forced : Нет
Аудио #1
Идентификатор : 2
Формат : AC-3
Формат/Информация : Audio Coding 3
Идентификатор кодека : A_AC3
Продолжительность : 1 ч. 48 м.
Вид битрейта : Постоянный
Битрейт : 448 Кбит/сек
Каналы : 6 каналов
Расположение каналов : Front: L C R, Side: L R, LFE
Частота : 48,0 КГц
Частота кадров : 31,250 кадров/сек (1536 SPF)
Битовая глубина : 16 бит
Метод сжатия : С потерями
Размер потока : 347 Мбайт (16%)
Заголовок : MVO | DD 5.1 @ 448 kbps - Blu-ray CEE
Язык : Russian
ServiceKind/String : Complete Main
Default : Да
Forced : Нет
Аудио #2
Идентификатор : 3
Формат : AC-3
Формат/Информация : Audio Coding 3
Идентификатор кодека : A_AC3
Продолжительность : 1 ч. 48 м.
Вид битрейта : Постоянный
Битрейт : 448 Кбит/сек
Каналы : 6 каналов
Расположение каналов : Front: L C R, Side: L R, LFE
Частота : 48,0 КГц
Частота кадров : 31,250 кадров/сек (1536 SPF)
Битовая глубина : 16 бит
Метод сжатия : С потерями
Размер потока : 347 Мбайт (16%)
Заголовок : Original | DD 5.1 @ 448 kbps
Язык : English
ServiceKind/String : Complete Main
Default : Нет
Forced : Нет
Текст #1
Идентификатор : 4
Формат : UTF-8
Идентификатор кодека : S_TEXT/UTF8
Идентификатор кодека/Информация : UTF-8 Plain Text
Заголовок : Forced
Язык : Russian
Default : Да
Forced : Нет
Текст #2
Идентификатор : 5
Формат : UTF-8
Идентификатор кодека : S_TEXT/UTF8
Идентификатор кодека/Информация : UTF-8 Plain Text
Заголовок : Blu-ray CEE
Язык : Russian
Default : Нет
Forced : Нет
Текст #3
Идентификатор : 6
Формат : UTF-8
Идентификатор кодека : S_TEXT/UTF8
Идентификатор кодека/Информация : UTF-8 Plain Text
Заголовок : Full
Язык : English
Default : Нет
Forced : Нет
Текст #4
Идентификатор : 7
Формат : UTF-8
Идентификатор кодека : S_TEXT/UTF8
Идентификатор кодека/Информация : UTF-8 Plain Text
Заголовок : SDH
Язык : English
Default : Нет
Forced : Нет
Меню
00:00:00.000 : en:00:00:00.000
00:07:48.176 : en:00:07:48.176
00:15:25.758 : en:00:15:25.758
00:21:42.635 : en:00:21:42.635
00:29:05.577 : en:00:29:05.577
00:33:03.190 : en:00:33:03.190
00:39:15.687 : en:00:39:15.687
00:46:07.056 : en:00:46:07.056
00:51:06.063 : en:00:51:06.063
00:57:12.763 : en:00:57:12.763
01:03:03.822 : en:01:03:03.822
01:09:11.147 : en:01:09:11.147
01:14:45.898 : en:01:14:45.898
01:20:18.605 : en:01:20:18.605
01:26:24.221 : en:01:26:24.221
01:34:09.394 : en:01:34:09.394
Download / Скачать

Хотите скачать бесплатно? Зарегистрируйтесь на сайте (ссылка на регистрацию). Pirat.ca - самый быстрый торрент трекер в рунете!

Как скачивать  ·   Что такое торрент  ·   Рейтинг и ограничения

Су-34

Гроза морей

14958

Пост 05-Апр-2018 14:28 (спустя 3 дня)

[Q] 

На разок глянуть можно, не более
[Профиль]  [ЛС] 

SwordFish

Морской Волк

1037

Пост 13-Май-2018 14:22 (спустя 1 месяц 7 дней)

[Q] 

Про зарождения Винни Пуха фильм был, а это про то как придумали Чудо-Женщину?
[Профиль]  [ЛС] 
Показать сообщения:    
Ответить на тему

Текущее время: Сегодня 07:57

Часовой пояс: GMT + 4



Вы не можете начинать темы
Вы не можете отвечать на сообщения
Вы не можете редактировать свои сообщения
Вы не можете удалять свои сообщения
Вы не можете голосовать в опросах
Вы не можете прикреплять файлы к сообщениям
Вы не можете скачивать файлы

Майнать ▼