Недруги / Hostiles (Скотт Купер/Scott Cooper) [2017 г., драма, приключения, вестерн, WEB-DLRip] Dub

Ответить на тему
 
Автор
Сообщение

Пост 03-Апр-2018 17:46

[Q] 

AlexDjas

Флибустьер

--Недруги / Hostiles-- Производство: США
Год выпуска: 2017 г.
Жанр: драма, приключения, вестерн
Продолжительность: 02:12:28
Мировая премьера: 2 сентября 2017
Российская премьера: 15 февраля 2018, «Парадиз»
Перевод: Профессиональный (полное дублирование)
Режиссёр: Скотт Купер/Scott Cooper--В ролях: Скотт Шеперд, Розамунд Пайк, Ава Купер, Стелла Купер, Дэвид Мидфандер, Кристиан Бэйл, Рори Кокрейн, Джонатан Мэйджерс, Джон Бенжамин Хикки--Описание: Когда на твоих глазах льется кровь, когда ты вынужден убивать, ты превращаешься в зверя... После долгих лет войны он дышал злобой, проклинал краснокожих, в каждом из них он видел врага. На исходе войны капитан Блокер получает приказ доставить на родину в Монтану умирающего вождя по кличке Желтый Ястреб. В цепях и кандалах он ведет семью индейцев через земли, где обитают враждебные племена и скрываются беглые преступники, где за каждым камнем поджидает смертельная опасность. Где-то на пути к отряду Блокера пристает обезумевшая от горя вдова, на глазах которой команчи убили ее мужа и детей. Эта встреча меняет всё...-- Качество видео: WEB-DLRip
Контейнер: AVI
Видео кодек: XviD
Аудио кодек: AC3
Видео: 720x304 (2.37:1), 23.976 fps, XviD MPEG-4 ~1264 kbps avg, 0.24 bit/pixel
Аудио: 48 kHz, AC3 Dolby Digital, 2 ch, ~192.00 kbps avg
Cубтитры: отсутствуют
Общее
Полное имя : G:\Фильмы\Hostiles_2017_WEB-DLRip[pirat.ca].avi
Формат : AVI
Формат/Информация : Audio Video Interleave
Профиль формата : OpenDML
Размер файла : 1,35 Гбайт
Продолжительность : 2 ч. 12 м.
Общий поток : 1464 Кбит/сек
Видео
Идентификатор : 0
Формат : MPEG-4 Visual
Профиль формата : Advanced Simple@L5
Настройки формата : BVOP2
Параметр BVOP формата : 2
Параметр QPel формата : Нет
Параметр GMC формата : Без точки перехода
Параметр матрицы формата : Default (H.263)
Идентификатор кодека : XVID
Идентификатор кодека/Подсказка : XviD
Продолжительность : 2 ч. 12 м.
Битрейт : 1259 Кбит/сек
Ширина : 720 пикселей
Высота : 304 пикселя
Соотношение сторон : 2,35:1
Частота кадров : 23,976 (24000/1001) кадра/сек
Цветовое пространство : YUV
Субдискретизация насыщенности : 4:2:0
Битовая глубина : bit0
Тип развёртки : Прогрессивная
Метод сжатия : С потерями
Бит/(Пиксели*Кадры) : 0.240
Размер потока : 1,17 Гбайт (86%)
Библиотека кодирования : XviD 1.2.1 (UTC 2008-12-04)
Аудио
Идентификатор : 1
Формат : AC-3
Формат/Информация : Audio Coding 3
Идентификатор кодека : 2000
Продолжительность : 2 ч. 12 м.
Вид битрейта : Постоянный
Битрейт : 192 Кбит/сек
Каналы : 2 канала
Расположение каналов : Front: L R
Частота : 48,0 КГц
Частота кадров : 31,250 кадров/сек (1536 SPF)
Битовая глубина : 16 бит
Метод сжатия : С потерями
Размер потока : 182 Мбайт (13%)
Выравнивание : Соединение по промежуткам
Продолжительность промежутка : 32 мс. (0,77 видеокадр)
ServiceKind/String : Complete Main
--Внимание!!! Присутствуют вставки текстовой рекламы!--
Download / Скачать

Хотите скачать бесплатно? Зарегистрируйтесь на сайте (ссылка на регистрацию). Pirat.ca - самый быстрый торрент трекер в рунете!

Как скачивать  ·   Что такое торрент  ·   Рейтинг и ограничения

Nik DeBori

Корсар

Пост 05-Апр-2018 11:40 (спустя 1 день 17 часов)

[Q] 

Кто-то смотрел? Как фильм?
[Профиль]  [ЛС] 

realleo

Корсар

Пост 05-Апр-2018 14:39 (спустя 2 часа 58 минут)

[Q] 

вот оно! вот то кино, которое пропустить нельзя!!!
наконец то, что то стоящее оскара от голливуда-но его не дадут этому фильму :( посмотрел на одном дыхании. бейл всё таки в говне не снимается, очередной раз убедился.
кино не для детей, это драма, безусловно историческая, для адекватных людей, фильм просто шедевр, и именно сейчас актуален как никогда. суть проста - не имеет значения, какой ты нации, ибо люди и нелюди есть в любой...
больше спойлерить не буду, смотрите сами
[Профиль]  [ЛС] 

kuzhavaka

Морской Волк

Пост 05-Апр-2018 23:04 (спустя 8 часов)

[Q] 

Хороший фильм, без дураков!
[Профиль]  [ЛС] 

Petrov

Лоцман

Пост 06-Апр-2018 01:21 (спустя 2 часа 17 минут)

[Q] 

Фильм, понравился. Философия войны и мира, как она есть. Вопрос один, ради чего. Каждый герой находит свой ответ сам.
[Профиль]  [ЛС] 

Alkanaft2

Лоцман

Пост 06-Апр-2018 03:12 (спустя 1 час 51 минута)

[Q] 

Очень хороший фильм.
[Профиль]  [ЛС] 

tumparov

Корсар

Пост 06-Апр-2018 22:57 (спустя 19 часов)

[Q] 

ну Спасибо!!! качаю, мнение позже Лови бочку
[Профиль]  [ЛС] 

MurMurChek

Лоцман

Пост 07-Апр-2018 00:28 (спустя 1 час 30 минут)

[Q] 

а что со скоростью уже который день?!(((
[Профиль]  [ЛС] 

andreiex

Морской Волк

Пост 07-Апр-2018 14:27 (спустя 13 часов)

[Q] 

Убедительное описание, захотелось посмотреть. Да и актеры хорошие. Комментарии искренние, тоже убедительны.
Автору спасибо за раздачу
Лови бочку
[Профиль]  [ЛС] 

Victorsalata

Корсар

Пост 08-Апр-2018 07:58 (спустя 17 часов)

[Q] 

Мне фильм понравился. Скотт Шеперд отлично сыграл роль капитана Блокера отражая суть отношений того времени между белыми и индейцами.
[Профиль]  [ЛС] 

shelby290

Флибустьер

Пост 09-Апр-2018 20:52 (спустя 1 день 12 часов)

[Q] 

очень хороший фильм!
[Профиль]  [ЛС] 

Skat.56

Легенда

453

Пост 09-Апр-2018 21:17 (спустя 24 минуты)

[Q] 

822281вот оно! вот то кино, которое пропустить нельзя!!!
наконец то, что то стоящее оскара от голливуда-но его не дадут этому фильму :( посмотрел на одном дыхании. бейл всё таки в говне не снимается, очередной раз убедился.
кино не для детей, это драма, безусловно историческая, для адекватных людей, фильм просто шедевр, и именно сейчас актуален как никогда. суть проста - не имеет значения, какой ты нации, ибо люди и нелюди есть в любой...
больше спойлерить не буду, смотрите сами
Спасибо за дельный комментарий. С удовольствием скачаю.

_________________
[Профиль]  [ЛС] 

fishman

Флибустьер

Пост 12-Апр-2018 00:38 (спустя 2 дня 3 часа)

[Q] 

Спасибо!!! rum

_________________
|___|___|___|___|___|___|___|__|__
__|__|__|_Биться головой_|___|___|
|___|___|___|__сюда!!___|___|__|__
__|___|___|___|___|___|___|__|__
[Профиль]  [ЛС] 

tumparov

Корсар

Пост 23-Апр-2018 13:26 (спустя 11 дней)

[Q] 

Ну более красочно я не скажу чем тут выше описали, но я давно, после просмотра фильма, не впадал в раздумья, а значит зацепило_!! Спасибо!!!
[Профиль]  [ЛС] 

Mustafa Sazont

Корсар

Пост 11-Май-2018 13:42 (спустя 18 дней)

[Q] 

Достойный фильм! Без русофобии, без голубизны. Настоящие мужские понятия дружбы. Класс!
Раздающему респект!
[Профиль]  [ЛС] 

Alexkrym

Шкипер

Пост 22-Май-2018 09:37 (спустя 10 дней)

[Q] 

Очень понравился фильм рекомендую к просмотру

_________________
Оставшись Господу верны Пройдём мы жизни круговерти А те кто бросил вызов смерти Уходят в лучшие Миры
[Профиль]  [ЛС] 
Показать сообщения:    
Ответить на тему

Текущее время: Сегодня 03:29

Часовой пояс: GMT + 4



Вы не можете начинать темы
Вы не можете отвечать на сообщения
Вы не можете редактировать свои сообщения
Вы не можете удалять свои сообщения
Вы не можете голосовать в опросах
Вы не можете прикреплять файлы к сообщениям
Вы не можете скачивать файлы

Майнать ▼