Секс гарантирован / Sex Guaranteed (Брэд Барнс / Brad Barnes, Тодд Барнс / Todd Barnes) [2017 г., комедия, WEB-DLRip] MVO

Ответить на тему
 
Автор
Сообщение

Пост 09-Апр-2018 10:53

[Q] 

Су-34

Гроза морей

-Секс гарантирован / Sex Guaranteed-- Производство: сша
Год выпуска: 2017 г.
Жанр: комедия
Продолжительность: 01:22:07
Мировая премьера: 24 октября 2017
Перевод: Любительский (многоголосый, закадровый) [GreenРай Studio]-Режиссёр: Брэд Барнс / Brad Barnes , Тодд Барнс / Todd Barnes-В ролях: Грэй Дэймон, Белла Дэйн, Стивен Дорфф, Дэн Фоглер, Джеймс ДеБелло, Ким Аллен, Джеймс Моусес Блэк, Карлос Веласкес, Анналиса Чемберлен, Клаудио Белланте-Описание: Чтобы вернуть свою бывшую девушку, Кевин решает отказаться от секса. Но его обет подвергается испытанию, когда он встречает прекрасную Зейд. Возможно, именно она сумеет вывести героя из депрессии и изменить его жизнь навсегда.- -Качество видео: WEB-DLRip
Контейнер: AVI
Видео кодек: XviD
Аудио кодек: AC3
Видео: XviD, 720x400 (16:9), 2185 kbps, 23,976 fps, 0,317 bpp
Аудио: AC3 / 2.0 / 48 kHz / 192 kbps / 16 bit
Cубтитры: отсутствуют
Внимание, имеется видео и аудио реклама от спонсора показа
General
Complete name : D:\Torrents\Sex Guaranteed.2017.P.WEB-DL.Rip.avi
Format : AVI
Format/Info : Audio Video Interleave
Format profile : OpenDML
File size : 1.37 GiB
Duration : 1 h 22 min
Overall bit rate : 2 390 kb/s
Writing application : Lavf57.83.100
Video
ID : 0
Format : MPEG-4 Visual
Format profile : Advanced [email protected]
Format settings, BVOP : 2
Format settings, QPel : No
Format settings, GMC : No warppoints
Format settings, Matrix : Default (MPEG)
Codec ID : XVID
Codec ID/Hint : XviD
Duration : 1 h 22 min
Bit rate : 2 186 kb/s
Width : 720 pixels
Height : 400 pixels
Display aspect ratio : 16:9
Frame rate : 23.976 (23976/1000) FPS
Color space : YUV
Chroma subsampling : 4:2:0
Bit depth : 8 bits
Scan type : Progressive
Compression mode : Lossy
Bits/(Pixel*Frame) : 0.317
Stream size : 1.25 GiB (91%)
Writing library : XviD 1.2.1 (UTC 2008-12-04)
Audio
ID : 1
Format : AC-3
Format/Info : Audio Coding 3
Mode extension : CM (complete main)
Format settings, Endianness : Big
Codec ID : 2000
Duration : 1 h 22 min
Bit rate mode : Constant
Bit rate : 192 kb/s
Channel(s) : 2 channels
Channel positions : Front: L R
Sampling rate : 48.0 kHz
Frame rate : 31.250 FPS (1536 spf)
Bit depth : 16 bits
Compression mode : Lossy
Stream size : 113 MiB (8%)
Alignment : Aligned on interleaves
Interleave, duration : 32 ms (0.77 video fram
Download / Скачать

Хотите скачать бесплатно? Зарегистрируйтесь на сайте (ссылка на регистрацию). Pirat.ca - самый быстрый торрент трекер в рунете!

Как скачивать  ·   Что такое торрент  ·   Рейтинг и ограничения

Показать сообщения:    
Ответить на тему

Текущее время: Сегодня 08:31

Часовой пояс: GMT + 4



Вы не можете начинать темы
Вы не можете отвечать на сообщения
Вы не можете редактировать свои сообщения
Вы не можете удалять свои сообщения
Вы не можете голосовать в опросах
Вы не можете прикреплять файлы к сообщениям
Вы не можете скачивать файлы

Майнать ▼