История призрака / A Ghost Story (Дэвид Лоури/David Lowery) [2017 г., Фэнтези, драма, HDRip] Dub

Ответить на тему
 
Автор
Сообщение

Пост 10-Апр-2018 10:09

[Q] 

AlexDjas

Гроза морей

--История призрака / A Ghost Story--«It's all about time»-- Производство: США | Ideaman Studios, Sailor Bear
Год выпуска: 2017 г.
Жанр: Фэнтези, драма
Продолжительность: 01:32:07
Перевод: Профессиональный (полное дублирование) [Студия "Пифагор"]
Режиссёр: Дэвид Лоури/David Lowery--В ролях: Кейси Аффлек, Руни Мара, МакКольм Сепас, Кеннейша Томпсон, Гроувер Колсон, Лизбет Карденас, Барлоу Джейкобс, Ричард Крауз, Дэггер Салазар, Соня Асеведо--Описание: Молодой музыкант попадает в автомобильную катастрофу. Вместо того, чтобы отправиться в мир иной, он остаётся привязан к своему бывшему дому до скончания веков. Проживая раз за разом историю дома, он встречается со всеми его владельцами...-- Качество видео: HDRip
Контейнер: MKV
Видео кодек: MPEG4 AVC
Аудио кодек: AAC
Видео: AVC/H.264, 1024х576 (16:9), ~1937 kbps, 23.976 fps
Аудио: AAC, 6 ch, 48.0 kHz, 317 kbps
Cубтитры: отсутствуют
Общее
Уникальный идентификатор : 178154302797028449190199382099395252454 (0x860745492CFB907129D9696F9FDE90E6)
Полное имя : D:\торрент\A_Ghost_Story_2017_HDRippirat.ca].mkv
Формат : Matroska
Версия формата : Version 4 / Version 2
Размер файла : 1,45 Гбайт
Продолжительность : 1 ч. 32 м.
Общий поток : 2257 Кбит/сек
Дата кодирования : UTC 2018-04-09 13:43:54
Программа кодирования : mkvmerge v19.0.0 ('Brave Captain') 64-bit
Библиотека кодирования : libebml v1.3.5 + libmatroska v1.4.8
Видео
Идентификатор : 1
Формат : AVC
Формат/Информация : Advanced Video Codec
Профиль формата : [email protected]
Настройки формата : CABAC / 3 Ref Frames
Параметр CABAC формата : Да
Параметр RefFrames формата : 3 кадра
Идентификатор кодека : V_MPEG4/ISO/AVC
Продолжительность : 1 ч. 32 м.
Битрейт : 1937 Кбит/сек
Ширина : 1024 пикселя
Высота : 576 пикселей
Соотношение сторон : 16:9
Режим частоты кадров : Постоянный
Частота кадров : 23,976 (24000/1001) кадра/сек
Стандарт вещания : PAL
Цветовое пространство : YUV
Субдискретизация насыщенности : 4:2:0
Битовая глубина : 8 бит
Тип развёртки : Прогрессивная
Бит/(Пиксели*Кадры) : 0.137
Размер потока : 1,25 Гбайт (86%)
Язык : English
Default : Да
Forced : Нет
Цветовой диапазон : Limited
Основные цвета : BT.601 PAL
Характеристики трансфера : BT.470 System B/G
Коэффициенты матрицы : BT.470 System B/G
Аудио
Идентификатор : 2
Формат : AAC
Формат/Информация : Advanced Audio Codec
Профиль формата : LC
Идентификатор кодека : A_AAC-2
Продолжительность : 1 ч. 32 м.
Битрейт : 317 Кбит/сек
Каналы : 6 каналов
Расположение каналов : Front: L C R, Side: L R, LFE
Частота : 48,0 КГц
Частота кадров : 46,875 кадров/сек (1024 SPF)
Метод сжатия : С потерями
Размер потока : 209 Мбайт (14%)
Заголовок : Pifagor
Язык : Russian
Default : Да
Forced : Нет
Download / Скачать

Хотите скачать бесплатно? Зарегистрируйтесь на сайте (ссылка на регистрацию). Pirat.ca - самый быстрый торрент трекер в рунете!

Как скачивать  ·   Что такое торрент  ·   Рейтинг и ограничения

realleo

Корсар

Пост 14-Апр-2018 02:13 (спустя 3 дня)

[Q] 

46 скачавших и ни одного отзыва, имейте совесть господа пираты, тысячу чертей!!!
[Профиль]  [ЛС] 

katja2212

Лоцман

Пост 14-Апр-2018 16:28 (спустя 14 часов)

[Q] 

Уже 57 и тишинаааа.
[Профиль]  [ЛС] 

Barskavkaz

Корсар

Пост 14-Апр-2018 23:16 (спустя 6 часов)

[Q] 

видимо все еще пересматривают)

_________________
Д.Тк
[Профиль]  [ЛС] 

clark

Флибустьер

Пост 15-Апр-2018 21:59 (спустя 22 часа)

[Q] 

спасибо посмотрим!!!

_________________
Последним смеётся тот, кто стреляет первым.
[Профиль]  [ЛС] 

Askr

Шкипер

Пост 18-Апр-2018 00:01 (спустя 2 дня 2 часа)

[Q] 

бюджет
$100 000
[Профиль]  [ЛС] 

Skat.56

Легенда

453

Пост 18-Апр-2018 00:48 (спустя 47 минут)

[Q] 

Трезвым не смотреть! Пьяным тоже. Если вы смотрели фильм "Изгой" и вам было скучно от недостатка екшена и батальных сцен, то рекомендую к просмотру данную картину, вы измените представление о том что такое скучно.

_________________
[Профиль]  [ЛС] 

feldorius

Корсар

Пост 19-Апр-2018 23:06 (спустя 1 день 22 часа)

[Q] 

Нудятина. Не тратьте время.
[Профиль]  [ЛС] 

Изюминка

Боцман

Пост 22-Апр-2018 17:10 (спустя 2 дня 18 часов)

[Q] 

Полный отстой! Как вообще в голову пришло такую каку снять...
[Профиль]  [ЛС] 

kirill_21121

Лоцман

Пост 01-Май-2018 15:46 (спустя 8 дней)

[Q] 

не советую..смотрел на перемотке..унылое говно
[Профиль]  [ЛС] 

shelby290

Гроза морей

Пост 21-Май-2018 21:39 (спустя 20 дней)

[Q] 

нудный...
Не качайте!
[Профиль]  [ЛС] 
Показать сообщения:    
Ответить на тему

Текущее время: Сегодня 03:14

Часовой пояс: GMT + 4



Вы не можете начинать темы
Вы не можете отвечать на сообщения
Вы не можете редактировать свои сообщения
Вы не можете удалять свои сообщения
Вы не можете голосовать в опросах
Вы не можете прикреплять файлы к сообщениям
Вы не можете скачивать файлы

Майнать ▼