Величайший шоумен / The Greatest Showman (Майкл Грэйси/Michael Gracey) [2017 г., Драма, Биография, Мюзикл, BDRip-AVC] Dub Sub (Rus,Ukr,Eng)

Ответить на тему
 
Автор
Сообщение

Пост 10-Апр-2018 11:49

[Q] 

AlexDjas

Флибустьер

--Величайший шоумен / The Greatest Showman--"Невозможное возможно"-- Производство: США, 20th Century Fox Film Corporation, Chernin Entertainment, TSG Entertainment
Год выпуска: 2017 г.
Жанр: Драма, Биография, Мюзикл
Продолжительность: 01:44:49
Мировая премьера: 20 декабря 2017
Российская премьера: 4 января 2018, «Двадцатый Век Фокс СНГ»
Дата выхода Blu-Ray: 6 апреля 2018, «Двадцатый Век Фокс СНГ»
Перевод: Профессиональный (полное дублирование) [iTunes]
Режиссёр: Майкл Грэйси/Michael Gracey--В ролях: Хью Джекман, Зак Эфрон, Мишель Уильямс, Ребекка Фергюсон, Зендея, Кила Сеттл, Яхья Абдул-Матин II, Остин Джонсон, Эллис Рубин, Скайлар Данн--Описание: Финеас Тейлор Барнум всегда мечтал войти в историю, но все его занятия не приносили ему удовольствия. И когда, казалось, весь мир обернулся против него, он решает пойти вслед за своей мечтой. Барнум создает завораживающее представление-сенсацию, которое стало рождением мирового шоу-бизнеса.-- Качество видео: BDRip-AVC
Контейнер: MKV
Видео кодек: MPEG4 AVC
Аудио кодек: AC3
Видео: AVC/H.264, 1024x426, ~1650 Kbps
Аудио: AC3, 6 ch, 384 Kbps (Русский)
Аудио #2: AC3, 2 ch, 224 Kbps (Украинский)
Аудио #3: AC3, 6 ch, 448 Kbps (Оригинал)
Cубтитры: Русские (forced, full), украинские (forced, full), английские (full, SDH)
Общее
Уникальный идентификатор : 222915658334170430899565508183935369947 (0xA7B3FE8057C88698854FCFED53F742DB)
Полное имя : G:\Фильмы\The_Greatest_Showman_2017_BDRip[pirat.ca].mkv
Формат : Matroska
Версия формата : Version 2
Размер файла : 1,98 Гбайт
Продолжительность : 1 ч. 44 м.
Общий поток : 2708 Кбит/сек
Название фильма : The.Greatest.Showman.2017.BDRip-AVC.
Дата кодирования : UTC 2018-04-08 14:17:46
Программа кодирования : mkvmerge v4.1.1 ('Bouncin' Back') сборка от Jul 3 2010 22:54:08
Библиотека кодирования : libebml v1.0.0 + libmatroska v1.0.0
Обложка : Yes
Attachments : cover.jpg
Видео
Идентификатор : 1
Формат : AVC
Формат/Информация : Advanced Video Codec
Профиль формата : High@L4.1
Настройки формата : CABAC / 12 Ref Frames
Параметр CABAC формата : Да
Параметр RefFrames формата : 12 кадров
Идентификатор кодека : V_MPEG4/ISO/AVC
Продолжительность : 1 ч. 44 м.
Битрейт : 1650 Кбит/сек
Ширина : 1024 пикселя
Высота : 426 пикселей
Соотношение сторон : 2,40:1
Режим частоты кадров : Постоянный
Частота кадров : 23,976 (23976/1000) кадра/сек
Цветовое пространство : YUV
Субдискретизация насыщенности : 4:2:0
Битовая глубина : 8 бит
Тип развёртки : Прогрессивная
Бит/(Пиксели*Кадры) : 0.158
Размер потока : 1,17 Гбайт (59%)
Заголовок : The Greatest Showman (2017)
Библиотека кодирования : x264 core 152 r2851 ba24899
Настройки программы : cabac=1 / ref=12 / deblock=1:-2:-2 / analyse=0x3:0x113 / me=umh / subme=11 / psy=1 / psy_rd=1.00:0.10 / mixed_ref=1 / me_range=32 / chroma_me=1 / trellis=2 / 8x8dct=1 / cqm=0 / deadzone=21,11 / fast_pskip=0 / chroma_qp_offset=-3 / threads=12 / lookahead_threads=3 / sliced_threads=0 / nr=0 / decimate=0 / interlaced=0 / bluray_compat=0 / constrained_intra=0 / bframes=10 / b_pyramid=2 / b_adapt=2 / b_bias=0 / direct=3 / weightb=1 / open_gop=0 / weightp=2 / keyint=240 / keyint_min=23 / scenecut=40 / intra_refresh=0 / rc_lookahead=40 / rc=2pass / mbtree=0 / bitrate=1650 / ratetol=1.0 / qcomp=0.60 / qpmin=0 / qpmax=51 / qpstep=4 / cplxblur=20.0 / qblur=0.5 / vbv_maxrate=50000 / vbv_bufsize=62500 / nal_hrd=none / filler=0 / ip_ratio=1.40 / pb_ratio=1.30 / aq=3:0.90
Язык : English
Default : Да
Forced : Нет
Цветовой диапазон : Limited
Основные цвета : BT.709
Характеристики трансфера : BT.709
Коэффициенты матрицы : BT.709
Statistics Tags Issue : mkvmerge v21.0.0 ('Tardigrades Will Inherit The Earth') 64-bit 2018-04-05 20:53:48 / mkvmerge v4.1.1 ('Bouncin' Back') сборка от Jul 3 2010 22:54:08 2018-04-08 14:17:46
FromStats_BitRate : 1650361
FromStats_Duration : 01:44:49.290000000
FromStats_FrameCount : 150792
FromStats_StreamSize : 1297449941
Аудио #1
Идентификатор : 2
Формат : AC-3
Формат/Информация : Audio Coding 3
Режим смешивания : Header stripping
Идентификатор кодека : A_AC3
Продолжительность : 1 ч. 44 м.
Вид битрейта : Постоянный
Битрейт : 384 Кбит/сек
Каналы : 6 каналов
Расположение каналов : Front: L C R, Side: L R, LFE
Частота : 48,0 КГц
Частота кадров : 31,250 кадров/сек (1536 SPF)
Битовая глубина : 16 бит
Метод сжатия : С потерями
Размер потока : 288 Мбайт (14%)
Заголовок : iTunes
Язык : Russian
ServiceKind/String : Complete Main
Default : Да
Forced : Да
Аудио #2
Идентификатор : 3
Формат : AC-3
Формат/Информация : Audio Coding 3
Режим смешивания : Header stripping
Идентификатор кодека : A_AC3
Продолжительность : 1 ч. 44 м.
Вид битрейта : Постоянный
Битрейт : 224 Кбит/сек
Каналы : 2 канала
Расположение каналов : Front: L R
Частота : 48,0 КГц
Частота кадров : 31,250 кадров/сек (1536 SPF)
Битовая глубина : 16 бит
Метод сжатия : С потерями
Размер потока : 168 Мбайт (8%)
Заголовок : AC3 2.0 @ 224 kbps - DUB, iTunes
Язык : Ukrainian
ServiceKind/String : Complete Main
Default : Нет
Forced : Да
Statistics Tags Issue : mkvmerge v21.0.0 ('Tardigrades Will Inherit The Earth') 64-bit 2018-04-05 20:53:48 / mkvmerge v4.1.1 ('Bouncin' Back') сборка от Jul 3 2010 22:54:08 2018-04-08 14:17:46
FromStats_BitRate : 224000
FromStats_Duration : 01:44:49.184000000
FromStats_FrameCount : 196537
FromStats_StreamSize : 176097152
Аудио #3
Идентификатор : 4
Формат : AC-3
Формат/Информация : Audio Coding 3
Режим смешивания : Header stripping
Идентификатор кодека : A_AC3
Продолжительность : 1 ч. 44 м.
Вид битрейта : Постоянный
Битрейт : 448 Кбит/сек
Каналы : 6 каналов
Расположение каналов : Front: L C R, Side: L R, LFE
Частота : 48,0 КГц
Частота кадров : 31,250 кадров/сек (1536 SPF)
Битовая глубина : 16 бит
Метод сжатия : С потерями
Размер потока : 336 Мбайт (17%)
Заголовок : AC3 5.1 @ 448 kbps - Original
Язык : English
ServiceKind/String : Complete Main
Default : Нет
Forced : Нет
Statistics Tags Issue : mkvmerge v21.0.0 ('Tardigrades Will Inherit The Earth') 64-bit 2018-04-05 20:53:48 / mkvmerge v4.1.1 ('Bouncin' Back') сборка от Jul 3 2010 22:54:08 2018-04-08 14:17:46
FromStats_BitRate : 448000
FromStats_Duration : 01:44:49.312000000
FromStats_FrameCount : 196541
FromStats_StreamSize : 352201472
Текст #1
Идентификатор : 5
Формат : UTF-8
Идентификатор кодека : S_TEXT/UTF8
Идентификатор кодека/Информация : UTF-8 Plain Text
Заголовок : Forced
Язык : Russian
Default : Да
Forced : Да
Текст #2
Идентификатор : 6
Формат : UTF-8
Идентификатор кодека : S_TEXT/UTF8
Идентификатор кодека/Информация : UTF-8 Plain Text
Заголовок : Full
Язык : Russian
Default : Нет
Forced : Нет
Текст #3
Идентификатор : 7
Формат : UTF-8
Идентификатор кодека : S_TEXT/UTF8
Идентификатор кодека/Информация : UTF-8 Plain Text
Заголовок : Forced
Язык : Ukrainian
Default : Нет
Forced : Да
Statistics Tags Issue : mkvmerge v21.0.0 ('Tardigrades Will Inherit The Earth') 64-bit 2018-04-05 20:53:48 / mkvmerge v4.1.1 ('Bouncin' Back') сборка от Jul 3 2010 22:54:08 2018-04-08 14:17:46
FromStats_BitRate : 44
FromStats_Duration : 01:36:01.303000000
FromStats_FrameCount : 559
FromStats_StreamSize : 32385
Текст #4
Идентификатор : 8
Формат : UTF-8
Идентификатор кодека : S_TEXT/UTF8
Идентификатор кодека/Информация : UTF-8 Plain Text
Заголовок : Full
Язык : Ukrainian
Default : Нет
Forced : Нет
Statistics Tags Issue : mkvmerge v21.0.0 ('Tardigrades Will Inherit The Earth') 64-bit 2018-04-05 20:53:48 / mkvmerge v4.1.1 ('Bouncin' Back') сборка от Jul 3 2010 22:54:08 2018-04-08 14:17:46
FromStats_BitRate : 98
FromStats_Duration : 01:43:48.478000000
FromStats_FrameCount : 1488
FromStats_StreamSize : 77033
Текст #5
Идентификатор : 9
Формат : UTF-8
Идентификатор кодека : S_TEXT/UTF8
Идентификатор кодека/Информация : UTF-8 Plain Text
Заголовок : Full
Язык : English
Default : Нет
Forced : Нет
Statistics Tags Issue : mkvmerge v21.0.0 ('Tardigrades Will Inherit The Earth') 64-bit 2018-04-05 20:53:48 / mkvmerge v4.1.1 ('Bouncin' Back') сборка от Jul 3 2010 22:54:08 2018-04-08 14:17:46
FromStats_BitRate : 77
FromStats_Duration : 01:36:01.424000000
FromStats_FrameCount : 1335
FromStats_StreamSize : 55768
Текст #6
Идентификатор : 10
Формат : UTF-8
Идентификатор кодека : S_TEXT/UTF8
Идентификатор кодека/Информация : UTF-8 Plain Text
Заголовок : SDH
Язык : English
Default : Нет
Forced : Нет
Statistics Tags Issue : mkvmerge v21.0.0 ('Tardigrades Will Inherit The Earth') 64-bit 2018-04-05 20:53:48 / mkvmerge v4.1.1 ('Bouncin' Back') сборка от Jul 3 2010 22:54:08 2018-04-08 14:17:46
FromStats_BitRate : 77
FromStats_Duration : 01:43:34.410000000
FromStats_FrameCount : 1864
FromStats_StreamSize : 60140
Меню
00:00:00.000 : en:Chapter 1
00:11:42.327 : en:Chapter 2
00:24:00.397 : en:Chapter 3
00:29:22.719 : en:Chapter 4
00:43:31.359 : en:Chapter 5
00:50:22.561 : en:Chapter 6
00:54:07.286 : en:Chapter 7
01:02:18.902 : en:Chapter 8
01:07:25.124 : en:Chapter 9
01:11:39.629 : en:Chapter 10
01:15:10.381 : en:Chapter 11
01:20:32.411 : en:Chapter 12
01:25:34.963 : en:Chapter 13
01:31:17.639 : en:Chapter 14
01:40:01.746 : en:Chapter 15
01:51:26.221 : en:Chapter 16
Download / Скачать

Хотите скачать бесплатно? Зарегистрируйтесь на сайте (ссылка на регистрацию). Pirat.ca - самый быстрый торрент трекер в рунете!

Как скачивать  ·   Что такое торрент  ·   Рейтинг и ограничения

moscowpan

Гроза морей

4266

Пост 12-Апр-2018 00:23 (спустя 1 день 12 часов)

[Q] 

про фокусников всегда нравятся фильмы Спасибо!!!

_________________
[Профиль]  [ЛС] 

fishman

Флибустьер

Пост 12-Апр-2018 00:34 (спустя 10 минут)

[Q] 

Спасибо!!! rum

_________________
|___|___|___|___|___|___|___|__|__
__|__|__|_Биться головой_|___|___|
|___|___|___|__сюда!!___|___|__|__
__|___|___|___|___|___|___|__|__
[Профиль]  [ЛС] 

Kesseril

Шкипер

Пост 12-Апр-2018 02:03 (спустя 1 час 28 минут)

[Q] 

давно такого клевого мюзикла не смотрел, отличное кино
[Профиль]  [ЛС] 

karnash

Шкипер

Пост 12-Апр-2018 23:24 (спустя 21 час)

[Q] 

хороший, добрый фильм.

_________________
курить вредно, пить противно, а умирать здоровым жалко...
[Профиль]  [ЛС] 

zloiaspirant

Корсар

Пост 15-Апр-2018 17:59 (спустя 2 дня 18 часов)

[Q] 

Оценки высокие, надеюсь трафик будет потрачен не зря. Автору спасибо за старания!
[Профиль]  [ЛС] 

clark

Флибустьер

Пост 15-Апр-2018 21:57 (спустя 3 часа)

[Q] 

красава спасибо!!!

_________________
Последним смеётся тот, кто стреляет первым.
[Профиль]  [ЛС] 

Mitay

388

Пост 19-Апр-2018 00:15 (спустя 3 дня)

[Q] 

По мотивам Фрик Шоу, но сделано классно и весело, ну и постановка супер
[Профиль]  [ЛС] 

ketzer

Корсар

Пост 19-Апр-2018 04:14 (спустя 3 часа)

[Q] 

Совершенно не впечатлил. Ни песен цепляющих, ни персонажей.
[Профиль]  [ЛС] 

Barskavkaz

Корсар

Пост 19-Апр-2018 15:03 (спустя 10 часов)

[Q] 

Задумка самого сюжета интересная! Фильм смотрится легко, но на один раз)

_________________
Д.Тк
[Профиль]  [ЛС] 

ciddharta

Штурман

Пост 21-Апр-2018 14:01 (спустя 1 день 22 часа)

[Q] 

фильм отличный! не люблю мюзиклы но этот фильм порадовал, отличная идея, сценарий и режиссура, сюжет конечно простой, но смысл отличный.
[Профиль]  [ЛС] 

nakme

Шкипер

Пост 24-Апр-2018 00:47 (спустя 2 дня 10 часов)

[Q] 

Не понравился. Снят хорошо, ярко, но "никак". Зацепили персонажи девушки акробата и парня из богатой семьи. Смотреть можно и соглашусь с оппонентом выше - на один раз.
[Профиль]  [ЛС] 

алексейка121212

Штурман

Пост 02-Май-2018 05:38 (спустя 8 дней)

[Q] 

кино не про фокусников, а про креативного продюссера, если так можно выразиться. кино понравилось. рекомендую
[Профиль]  [ЛС] 

_8165

Корсар

Пост 04-Май-2018 17:51 (спустя 2 дня 12 часов)

[Q] 

Отличный фильм, посмотреть стоит Супер!
[Профиль]  [ЛС] 

SeaSide

Штурман

Пост 05-Май-2018 15:12 (спустя 21 час)

[Q] 

Отличный фильм )
[Профиль]  [ЛС] 

Mustafa Sazont

Корсар

Пост 11-Май-2018 13:50 (спустя 5 дней)

[Q] 

Крутой фильм! Музыка бесподобная. Автору раздачи спасибо!
[Профиль]  [ЛС] 
Показать сообщения:    
Ответить на тему

Текущее время: Сегодня 21:19

Часовой пояс: GMT + 4



Вы не можете начинать темы
Вы не можете отвечать на сообщения
Вы не можете редактировать свои сообщения
Вы не можете удалять свои сообщения
Вы не можете голосовать в опросах
Вы не можете прикреплять файлы к сообщениям
Вы не можете скачивать файлы

Майнать ▼