Уважаемый Гость!
Вы можете поддержать проект и зарегистрироваться у наших партнеров - онлайн-стратегия MyLands. При регистрации в игре Вы получите код, который сможете активировать после регистрации на pirat.ca и получить 1000 дублонов.

Ваш код:
05181f8534337fc2a6592e5d110ed71cde4f6ab1
 
     

Затерянные в космосе / Lost in Space / Сезон: 1 / Серии: 1-10 из 10 (Тим Соутэм / Tim Southam) [2018, фантастика WEBRip 720р] MVO (Baibako)

Ответить на тему
 
Автор
Сообщение

Пост 14-Апр-2018 18:41

[Q] 

tank69

Корсар

-Затерянные в космосе / Lost in Space -- Производство: США, Netflix
Жанр: фантастика
Год выпуска: 2018 г.
Продолжительность: 1:04:20
Мировая премьера: 13 апреля 2018
Перевод: Профессиональный (многоголосый, закадровый) [Baibako]
Режиссёр: Тим Соутэм / Tim Southam, Дебора Чоу / Deborah Chow, Стивен Серджик / Stephen Surjik-В ролях: Мина Сандвол, Молли Паркер, Тоби Стивенс, Паркер Поузи, Макс Дженкинс, Тейлор Расселл, Амелия Берстин, Раза Джеффри, Кики Сукэдзанэ-Описание: 2046 год. Космический корабль теряется в космосе и терпит крушение на планете на расстоянии нескольких световых лет от планируемого места назначения. Его обитатели, семья Робинсонов, вынуждены приспособиться и выжить в новых условиях.-
Качество видео: WEBRip 720р
Контейнер: MKV
Видео кодек: AVC
Аудио кодек: AC3
Видео: AVC, 1280x720, 23.976 fps, 2877 Kbps
Аудио Rus: AC-3, 48.0 KHz, 6 ch, 640 Kbps
Аудио Eng: AC-3, 48.0 KHz, 6 ch, 640 Kbps
Cубтитры: отсутствуют
Римейк научно-фантастического сериала 1960-х годов "Затерянные в космосе", который рассказывает о семье исследователей, которые должны бороться за выживание в холодных глубинах космоса
никальный идентификатор : 194401349440486606238197255099820999494 (0x92405687EED4E511899BF0D41EAF0346)
Полное имя : C:\Users\vigor\Downloads\Lost.in.Space.s01.HD720p.WEBRip.Rus.Eng.BaibaKo.tv\Lost.in.Space.s01e01.HD720p.WEBRip.Rus.Eng.BaibaKo.tv.mkv
Формат : Matroska
Версия формата : Version 4 / Version 2
Размер файла : 1,86 Гбайт
Продолжительность : 1 ч. 4 м.
Общий поток : 4142 Кбит/сек
Дата кодирования : UTC 2018-04-14 09:53:34
Программа кодирования : mkvmerge v9.3.1 ('Mask Machine') 64bit
Библиотека кодирования : libebml v1.3.4 + libmatroska v1.4.5
Видео
Идентификатор : 1
Формат : AVC
Формат/Информация : Advanced Video Codec
Профиль формата : [email protected]
Настройки формата : CABAC / 4 Ref Frames
Параметр CABAC формата : Да
Параметр RefFrames формата : 4 кадра
Идентификатор кодека : V_MPEG4/ISO/AVC
Продолжительность : 1 ч. 4 м.
Битрейт : 2877 Кбит/сек
Ширина : 1280 пикселей
Высота : 720 пикселей
Соотношение сторон : 16:9
Режим частоты кадров : Постоянный
Частота кадров : 23,976 (24000/1001) кадра/сек
Цветовое пространство : YUV
Субдискретизация насыщенности : 4:2:0
Битовая глубина : 8 бит
Тип развёртки : Прогрессивная
Бит/(Пиксели*Кадры) : 0.130
Размер потока : 1,29 Гбайт (69%)
Default : Да
Forced : Нет
Аудио #1
Идентификатор : 2
Формат : AC-3
Формат/Информация : Audio Coding 3
Идентификатор кодека : A_AC3
Продолжительность : 1 ч. 3 м.
Вид битрейта : Постоянный
Битрейт : 640 Кбит/сек
Каналы : 6 каналов
Расположение каналов : Front: L C R, Side: L R, LFE
Частота : 48,0 КГц
Частота кадров : 31,250 кадров/сек (1536 SPF)
Битовая глубина : 16 бит
Метод сжатия : С потерями
Размер потока : 291 Мбайт (15%)
Язык : Russian
ServiceKind/String : Complete Main
Default : Да
Forced : Нет
Аудио #2
Идентификатор : 3
Формат : AC-3
Формат/Информация : Audio Coding 3
Идентификатор кодека : A_AC3
Продолжительность : 1 ч. 3 м.
Вид битрейта : Постоянный
Битрейт : 640 Кбит/сек
Каналы : 6 каналов
Расположение каналов : Front: L C R, Side: L R, LFE
Частота : 48,0 КГц
Частота кадров : 31,250 кадров/сек (1536 SPF)
Битовая глубина : 16 бит
Метод сжатия : С потерями
Размер потока : 291 Мбайт (15%)
Язык : English
ServiceKind/String : Complete Main
Default : Нет
Forced : Нет
Download / Скачать

Хотите скачать бесплатно? Зарегистрируйтесь на сайте (ссылка на регистрацию). Pirat.ca - самый быстрый торрент трекер в рунете!

Как скачивать  ·   Что такое торрент  ·   Рейтинг и ограничения



Последний раз редактировалось: tank69 (2018-04-16 19:15), всего редактировалось 7 раз(а)

tank69 ®

Корсар

362

Пост 14-Апр-2018 22:52 (спустя 4 часа)

[Q] 

Все серии первого сезона.
Приятного просмотра!
[Профиль]  [ЛС] 

Ruslan78

Лоцман

Пост 16-Апр-2018 20:17 (спустя 1 день 21 час)

[Q] 

Автору респект!!!
Посмотрим что за сериальчик aa
[Профиль]  [ЛС] 

zvernight

Гроза морей

Пост 18-Апр-2018 00:43 (спустя 1 день 4 часа)

[Q] 

Серил очень понравился 10/10, хорошо снятый, детский добрый сериал. Чем-то некотрые детские голливудские фильмы 90-х напомнил. Не толерантный, что сегодня редкость. Могут ведь и не продлить, как, например "Темную материю". Буду ждать следующий сезон.
[Профиль]  [ЛС] 

Ruslan78

Лоцман

Пост 20-Апр-2018 02:19 (спустя 2 дня 1 час)

[Q] 

Мне понравилось
Спасибо! Очень понравился!
[Профиль]  [ЛС] 
Показать сообщения:    
Ответить на тему

Текущее время: Сегодня 18:59

Часовой пояс: GMT + 4



Вы не можете начинать темы
Вы не можете отвечать на сообщения
Вы не можете редактировать свои сообщения
Вы не можете удалять свои сообщения
Вы не можете голосовать в опросах
Вы не можете прикреплять файлы к сообщениям
Вы не можете скачивать файлы

▼ Вниз