Уважаемый Гость!
Вы можете поддержать проект и зарегистрироваться у наших партнеров - онлайн-стратегия MyLands. При регистрации в игре Вы получите код, который сможете активировать после регистрации на pirat.ca и получить 1000 дублонов.

Ваш код:
78dceca3e7b2bf1172f0fc2a20d0a5a22ce9d460
 
     

Рэмпейдж / Rampage (Брэд Пейтон/Brad Peyton) [2018 г., Фантастика, Боевик, Приключения, TeleSynch, 720p] Dub

Ответить на тему
 
Автор
Сообщение

Пост 14-Апр-2018 20:55

[Q] 

AlexDjas

Корсар

--Рэмпейдж / Rampage--«Больше, чем скала»-- Производство: США
Год выпуска: 2018 г.
Жанр: Фантастика, Боевик, Приключения
Продолжительность: 01:39:32
Мировая премьера: 11 апреля 2018
Российская премьера: 12 апреля 2018, «Каро-Премьер»
Перевод: Профессиональный (полное дублирование)
Режиссёр: Брэд Пейтон/Brad Peyton--В ролях: Дуэйн Джонсон, Джеффри Дин Морган, Малин Акерман, Джо Манганьелло, Марли Шелтон, Уилл Юн Ли, Наоми Харрис, Джек Куэйд, Джейк Лэси, Бриэнн Хилл--Описание: Приматолог Дэвис Окойи предпочитает держаться подальше от людей и дружит с Джорджем, удивительно умным альфа-самцом — гориллой, которого он воспитывал с самого рождения. Но вышедший из-под контроля генетический эксперимент превращает послушную обезьяну в яростного монстра. Более того, вскоре обнаруживается, что существуют и другие модифицированные хищники. Пока свежесозданные чудовища превращают в руины Северную Америку, стирая с лица Земли все, что попадается у них на пути, Окойи вместе с опальным генным инженером пытается изобрести антидот, прорываясь по бесконечному полю боя не только, чтобы предотвратить глобальную катастрофу, но и спасти бесстрашное существо, которое когда-то было его другом.-
Качество видео: TeleSynch
Контейнер: MKV
Стандарт разрешения: 720p
Видео кодек: MPEG4 AVC
Аудио кодек: AC3
Видео: AVC/H.264, 1280x480 (2.667), 3242 kbps, 23.976 fps
Аудио: 48 kHz, AC3 Dolby Digital, 2/0 (L,R) ch, ~384 kbps
Cубтитры: отсутствуют
Общее
Уникальный идентификатор : 188587062045420329181765389409146791593 (0x8DE08C07A6629FC690D5A4E7A85E66A9)
Полное имя : G:\Фильмы\Rampage_2018_TS[pirat.ca].mkv
Формат : Matroska
Версия формата : Version 2
Размер файла : 2,57 Гбайт
Продолжительность : 1 ч. 39 м.
Режим общего битрейта : Переменный
Общий поток : 3699 Кбит/сек
Дата кодирования : UTC 2018-04-14 15:22:11
Программа кодирования : mkvmerge v8.3.0 ('Over the Horizon') 64bit
Библиотека кодирования : libebml v1.3.1 + libmatroska v1.4.2
Видео
Идентификатор : 1
Формат : AVC
Формат/Информация : Advanced Video Codec
Профиль формата : [email protected]
Настройки формата : CABAC / 4 Ref Frames
Параметр CABAC формата : Да
Параметр RefFrames формата : 4 кадра
Идентификатор кодека : V_MPEG4/ISO/AVC
Продолжительность : 1 ч. 39 м.
Вид битрейта : Переменный
Битрейт : 3242 Кбит/сек
Максимальный битрейт : 3500 Кбит/сек
Ширина : 1280 пикселей
Высота : 480 пикселей
Соотношение сторон : 2,667
Режим частоты кадров : Постоянный
Частота кадров : 23,976 (24000/1001) кадра/сек
Стандарт вещания : Component
Цветовое пространство : YUV
Субдискретизация насыщенности : 4:2:0
Битовая глубина : 8 бит
Тип развёртки : Прогрессивная
Бит/(Пиксели*Кадры) : 0.220
Размер потока : 2,25 Гбайт (88%)
Язык : English
Default : Да
Forced : Нет
Цветовой диапазон : Limited
Основные цвета : BT.709
Характеристики трансфера : BT.709
Коэффициенты матрицы : BT.709
Аудио
Идентификатор : 2
Формат : AC-3
Формат/Информация : Audio Coding 3
Идентификатор кодека : A_AC3
Продолжительность : 1 ч. 39 м.
Вид битрейта : Постоянный
Битрейт : 384 Кбит/сек
Каналы : 2 канала
Расположение каналов : Front: L R
Частота : 48,0 КГц
Частота кадров : 31,250 кадров/сек (1536 SPF)
Битовая глубина : 16 бит
Метод сжатия : С потерями
Размер потока : 273 Мбайт (10%)
Язык : Russian
ServiceKind/String : Complete Main
Default : Да
Forced : Нет
--Внимание!!! Присутствует реклама!!!--
Download / Скачать

Хотите скачать бесплатно? Зарегистрируйтесь на сайте (ссылка на регистрацию). Pirat.ca - самый быстрый торрент трекер в рунете!

Как скачивать  ·   Что такое торрент  ·   Рейтинг и ограничения

Pirat177

Корсар

Пост 14-Апр-2018 22:42 (спустя 1 час 47 минут)

[Q] 

Жду качества На любителя
[Профиль]  [ЛС] 

baltimor30

Корсар

Пост 15-Апр-2018 22:57 (спустя 1 день)

[Q] 

в таком скрине даже смтреть не буду, это тупо кэм рип на телефон
[Профиль]  [ЛС] 
Показать сообщения:    
Ответить на тему

Текущее время: Сегодня 01:23

Часовой пояс: GMT + 4



Вы не можете начинать темы
Вы не можете отвечать на сообщения
Вы не можете редактировать свои сообщения
Вы не можете удалять свои сообщения
Вы не можете голосовать в опросах
Вы не можете прикреплять файлы к сообщениям
Вы не можете скачивать файлы

▼ Вниз