Ноттинг Хилл / Notting Hill (Роджер Мичелл / Roger Michell) [1999 г., Мелодрама, WEBRip-AVC] AVO (Живов, Немахов) + Subs (Rus)

Ответить на тему
 
Автор
Сообщение

Пост 16-Апр-2018 13:56

[Q] 

anton966

Ноттинг Хилл / Notting Hill
«Can the most famous film star in the world fall for just an ordinary guy?»
- Год выпуска: 1999
Страна: Великобритания-США
Жанр: Мелодрама
Продолжительность: 02:04:09
Перевод: Авторский (одноголосый) Юрий Живов, Юрий Немахов
Русские субтитры: Есть
Режиссер: Роджер Мичелл / Roger Michell
В ролях: Джулия Робертс / Julia Roberts, Хью Грант / Hugh Grant, Хью Бонневиль / Hugh Bonneville, Эмма Чэмберс / Emma Chambers, Джеймс Дрейфус / James Dreyfus, Риз Айфэнс / Rhys Ifans, Тим МакИннерни / Tim McInnerny, Джина МакКи / Gina McKee, Алек Болдуин / Alec Baldwin
Описание: История о скромном владельце книжного магазина в Ноттинг Хилл (один из районов Лондона), жизнь которого резко меняется после того, как однажды кинозвезда заходит к нему в маленький книжный магазинчик, чтобы купить путеводитель…

Качество видео: WEBRip-AVC / WEBRip 1080p Amazon
Контейнер: MKV
Видео кодек: MPEG-4 AVC / x.264
Видео: 1152x648 / 3057 kbps / 23,976 fps / 16:9 / High Profile 4.1
Аудио #1: 48 kHz, AC3 Dolby Digital, 3/2 (L,C,R,l,r) + LFE ch, ~384.00 kbps avg - Живов*
Аудио #2: 48 kHz, AC3 Dolby Digital, 3/2 (L,C,R,l,r) + LFE ch, ~448.00 kbps avg - Немахов
* - Дорожка с переводом Юрия Живова с ранних сборок, т.к. в нынешнем варианте слушать невозможно из-за очень тихого голоса переводчика по отношению к громкости оригинала. Переделывать самому лень.
1.jorn2
2.luka69
3.Nadoelo
4.Valen
5.Эдуард
6.chontvari
7.Tio
8.carnivale
9.xerman13
10.Kastro
11.kondratzx
12.Водолей
13.anton966
14.pestel
Формат : Matroska
Версия формата : Version 4 / Version 2
Размер файла : 3,37 Гбайт
Продолжительность : 2 ч. 4 м.
Общий поток : 3891 Кбит/сек
Название фильма : Notting Hill.1999.WEBRip-AVC.Zhivov.Nemahov.Subs -=anton966=-
Дата кодирования : UTC 2018-04-16 07:16:13
Программа кодирования : mkvmerge v8.3.0 ('Over the Horizon') 64bit
Библиотека кодирования : libebml v1.3.1 + libmatroska v1.4.2
Видео
Идентификатор : 1
Формат : AVC
Формат/Информация : Advanced Video Codec
Профиль формата : High@L4.1
Настройки формата : CABAC / 11 Ref Frames
Параметр CABAC формата : Да
Параметр RefFrames формата : 11 кадров
Идентификатор кодека : V_MPEG4/ISO/AVC
Продолжительность : 2 ч. 4 м.
Битрейт : 3057 Кбит/сек
Ширина : 1152 пикселя
Высота : 648 пикселей
Соотношение сторон : 16:9
Режим частоты кадров : Постоянный
Частота кадров : 23,976 (23976/1000) кадра/сек
Цветовое пространство : YUV
Субдискретизация насыщенности : 4:2:0
Битовая глубина : 8 бит
Тип развёртки : Прогрессивная
Бит/(Пиксели*Кадры) : 0.171
Размер потока : 2,65 Гбайт (79%)
Заголовок : Notting Hill.1999.WEBRip-AVC
Библиотека кодирования : x264 core 152 r2851kMod ba24899
Настройки программы : cabac=1 / ref=11 / deblock=1:-3:-3 / analyse=0x3:0x113 / me=umh / subme=10 / psy=1 / fade_compensate=0.00 / psy_rd=1.02:0.12 / mixed_ref=1 / me_range=32 / chroma_me=1 / trellis=2 / 8x8dct=1 / cqm=0 / deadzone=21,11 / fast_pskip=0 / chroma_qp_offset=-3 / threads=6 / lookahead_threads=1 / sliced_threads=0 / nr=0 / decimate=1 / interlaced=0 / bluray_compat=0 / constrained_intra=0 / bframes=11 / b_pyramid=2 / b_adapt=2 / b_bias=0 / direct=1 / weightb=1 / open_gop=0 / weightp=2 / keyint=250 / keyint_min=23 / scenecut=40 / intra_refresh=0 / rc_lookahead=40 / rc=crf / mbtree=0 / crf=19.3000 / qcomp=0.60 / qpmin=0 / qpmax=69 / qpstep=4 / vbv_maxrate=40000 / vbv_bufsize=62500 / crf_max=0.0 / nal_hrd=none / filler=0 / ip_ratio=1.40 / pb_ratio=1.30 / aq=3:0.80
Язык : English
Default : Да
Forced : Нет
Цветовой диапазон : Limited
Основные цвета : BT.709
Характеристики трансфера : BT.709
Коэффициенты матрицы : BT.709
Аудио #1
Идентификатор : 2
Формат : AC-3
Формат/Информация : Audio Coding 3
Идентификатор кодека : A_AC3
Продолжительность : 2 ч. 4 м.
Вид битрейта : Постоянный
Битрейт : 384 Кбит/сек
Каналы : 6 каналов
Расположение каналов : Front: L C R, Side: L R, LFE
Частота : 48,0 КГц
Частота кадров : 31,250 кадров/сек (1536 SPF)
Битовая глубина : 16 бит
Метод сжатия : С потерями
Размер потока : 341 Мбайт (10%)
Заголовок : Zhivov
Язык : Russian
ServiceKind/String : Complete Main
Default : Да
Forced : Нет
Аудио #2
Идентификатор : 3
Формат : AC-3
Формат/Информация : Audio Coding 3
Идентификатор кодека : A_AC3
Продолжительность : 2 ч. 4 м.
Вид битрейта : Постоянный
Битрейт : 448 Кбит/сек
Каналы : 6 каналов
Расположение каналов : Front: L C R, Side: L R, LFE
Частота : 48,0 КГц
Частота кадров : 31,250 кадров/сек (1536 SPF)
Битовая глубина : 16 бит
Метод сжатия : С потерями
Размер потока : 398 Мбайт (12%)
Заголовок : Nemahov
Язык : Russian
ServiceKind/String : Complete Main
Default : Нет
Forced : Нет
Текст
Идентификатор : 4
Формат : UTF-8
Идентификатор кодека : S_TEXT/UTF8
Идентификатор кодека/Информация : UTF-8 Plain Text
Продолжительность : 2 ч. 0 м.
Битрейт : 87 бит/сек
ElementCount : 1268
Размер потока : 76,9 Кбайт (0%)
Язык : Russian
Default : Нет
Forced : Нет
avs [info]: 1152x648p 1:1 @ 2997/125 fps (cfr)
x264 [info]: using SAR=1/1
x264 [info]: using cpu capabilities: MMX2 SSE2Fast SSSE3 SSE4.2 AVX XOP FMA3 BMI1
x264 [info]: profile High, level 4.1
x264 [info]: cabac=1 ref=11 deblock=1:-3:-3 analyse=0x3:0x113 me=umh subme=10 psy=1 fade_compensate=0.00 psy_rd=1.02:0.12 mixed_ref=1 me_range=32 chroma_me=1 trellis=2 8x8dct=1 cqm=0 deadzone=21,11 fast_pskip=0 chroma_qp_offset=-3 threads=6 lookahead_threads=1 sliced_threads=0 nr=0 decimate=1 interlaced=0 bluray_compat=0 constrained_intra=0 bframes=11 b_pyramid=2 b_adapt=2 b_bias=0 direct=1 weightb=1 open_gop=0 weightp=2 keyint=250 keyint_min=23 scenecut=40 intra_refresh=0 rc_lookahead=40 rc=crf mbtree=0 crf=19.3000 qcomp=0.60 qpmin=0 qpmax=69 qpstep=4 vbv_maxrate=40000 vbv_bufsize=62500 crf_max=0.0 nal_hrd=none filler=0 ip_ratio=1.40 pb_ratio=1.30 aq=3:0.80
x264 [info]: frame I:1471 Avg QP:17.94 size: 94883
x264 [info]: frame P:40281 Avg QP:19.16 size: 32471
x264 [info]: frame B:136846 Avg QP:21.38 size: 10225
x264 [info]: consecutive B-frames: 1.5% 2.1% 6.8% 41.9% 14.0% 24.5% 4.7% 3.8% 0.4% 0.1% 0.1% 0.1%
x264 [info]: mb I I16..4: 5.8% 79.3% 14.9%
x264 [info]: mb P I16..4: 1.3% 13.4% 1.4% P16..4: 38.3% 26.5% 13.9% 0.0% 0.0% skip: 5.2%
x264 [info]: mb B I16..4: 0.2% 1.1% 0.1% B16..8: 36.9% 9.7% 2.6% direct: 7.3% skip:42.1% L0:38.9% L1:47.0% BI:14.1%
x264 [info]: 8x8 transform intra:82.1% inter:66.5%
x264 [info]: coded y,uvDC,uvAC intra: 84.6% 83.5% 59.8% inter: 24.9% 24.4% 3.9%
x264 [info]: i16 v,h,dc,p: 34% 14% 13% 39%
x264 [info]: i8 v,h,dc,ddl,ddr,vr,hd,vl,hu: 17% 10% 11% 8% 11% 12% 11% 11% 12%
x264 [info]: i4 v,h,dc,ddl,ddr,vr,hd,vl,hu: 19% 10% 5% 8% 13% 13% 12% 10% 11%
x264 [info]: i8c dc,h,v,p: 43% 22% 21% 14%
x264 [info]: Weighted P-Frames: Y:2.6% UV:1.6%
x264 [info]: ref P L0: 46.9% 12.2% 18.3% 5.3% 4.8% 3.2% 3.1% 1.6% 1.7% 1.4% 1.5% 0.0% 0.0%
x264 [info]: ref B L0: 80.1% 9.5% 3.8% 1.9% 1.4% 1.1% 1.0% 0.6% 0.4% 0.2%
x264 [info]: ref B L1: 95.9% 4.1%
x264 [info]: kb/s:3057.37
Blu-Ray 1080p VC-1

WEBRip 1080p Amazon:
Download / Скачать

Хотите скачать бесплатно? Зарегистрируйтесь на сайте (ссылка на регистрацию). Pirat.ca - самый быстрый торрент трекер в рунете!

Как скачивать  ·   Что такое торрент  ·   Рейтинг и ограничения

vladisla

Корсар

4

Пост 16-Апр-2018 20:19 (спустя 6 часов)

[Q] 

Спасибо за релиз!
Сейчас скачаем!
[Профиль]  [ЛС] 

anton966 ®

10852

Пост 16-Апр-2018 20:24 (спустя 4 минуты)

[Q] 

vladisla1974,
Пожалуйста!

_________________
" ...потому что во многой мудрости много печали; и кто умножает познания, умножает скорбь" ( Еккл 1:17,18)
[Профиль]  [ЛС] 
Показать сообщения:    
Ответить на тему

Текущее время: Сегодня 01:08

Часовой пояс: GMT + 4



Вы не можете начинать темы
Вы не можете отвечать на сообщения
Вы не можете редактировать свои сообщения
Вы не можете удалять свои сообщения
Вы не можете голосовать в опросах
Вы не можете прикреплять файлы к сообщениям
Вы не можете скачивать файлы

Майнать ▼