Ну, здравствуй, Оксана Соколова! (Кирилл Васильев) [2018 г., комедия, WEB-DLRip]

Ответить на тему
 
Автор
Сообщение

Пост 17-Апр-2018 08:16

[Q] 

AlexDjas

Флибустьер

--Ну, здравствуй, Оксана Соколова! -- Производство: Россия
Режиссёр: Кирилл Васильев
Жанр: комедия
Год выпуска: 2018 г.
Продолжительность: 01:39:54
Российская премьера: 8 марта 2018, «Наше Кино»
В ролях: Виктор Добронравов, Валентина Мазунина, Сергей Бурунов, Борис Дергачев, Алексей Базанов, Александр Стефанцов, Николай Шрайбер, Алексей Медведев, Игорь Гаспарян, Сергей Лавыгин--Описание: Несостоявшемуся актеру Илье наконец-то повезло — с завтрашнего дня его голос будет звучать в эфире «Мужского радио». Как же не отметить такое событие! Но утром новоиспеченный ведущий не может произнести ни слова — голос после бурной вечеринки пропал совсем. Полчаса до эфира, прайм-тайм, подписанный контракт — Илья в панике… Единственный выход — укол в голосовые связки. Только это, по заверению доктора, может спасти ситуацию. И вот ведущий у микрофона. Все готово к эфиру. Обратный отсчет. Илья приветствует радиослушателей… женским голосом! Став заложником нелепой ситуации, герой идёт на всё, чтобы вернуть голос и не упустить свой шанс.--
Качество видео: WEB-DLRip
Контейнер: AVI
Видео кодек: XviD
Аудио кодек: AC3
Видео: 720x304 (2.37:1), 23.976 fps, XviD build 73 ~1699 kbps avg, 0.32 bit/pixel
Аудио: 48 kHz, AC3 Dolby Digital, 3/2 (L,C,R,l,r) + LFE ch, ~384 kbps
Cубтитры: отсутствуют
Общее
Полное имя : D:\торрент\Ну_здравствуй_Оксана_Соколова.2018.WEB-DLRip[pirat.ca].avi
Формат : AVI
Формат/Информация : Audio Video Interleave
Размер файла : 1,46 Гбайт
Продолжительность : 1 ч. 39 м.
Общий поток : 2093 Кбит/сек
Программа кодирования : VirtualDubMod 1.5.10.2 (build 2540/release)
Библиотека кодирования : VirtualDubMod build 2540/release
Видео
Идентификатор : 0
Формат : MPEG-4 Visual
Профиль формата : Advanced Simple@L5
Настройки формата : BVOP1 / Custom Matrix
Параметр BVOP формата : 1
Параметр QPel формата : Нет
Параметр GMC формата : Без точки перехода
Параметр матрицы формата : Выборочная
Идентификатор кодека : XVID
Идентификатор кодека/Подсказка : XviD
Продолжительность : 1 ч. 39 м.
Битрейт : 1700 Кбит/сек
Ширина : 720 пикселей
Высота : 304 пикселя
Соотношение сторон : 2,35:1
Частота кадров : 23,976 (24000/1001) кадра/сек
Цветовое пространство : YUV
Субдискретизация насыщенности : 4:2:0
Битовая глубина : 8 бит
Тип развёртки : Прогрессивная
Метод сжатия : С потерями
Бит/(Пиксели*Кадры) : 0.324
Размер потока : 1,19 Гбайт (81%)
Библиотека кодирования : XviD 73
Аудио
Идентификатор : 1
Формат : AC-3
Формат/Информация : Audio Coding 3
Идентификатор кодека : 2000
Продолжительность : 1 ч. 39 м.
Вид битрейта : Постоянный
Битрейт : 384 Кбит/сек
Каналы : 6 каналов
Расположение каналов : Front: L C R, Side: L R, LFE
Частота : 48,0 КГц
Частота кадров : 31,250 кадров/сек (1536 SPF)
Битовая глубина : 16 бит
Метод сжатия : С потерями
Размер потока : 274 Мбайт (18%)
Выравнивание : Разделение по промежуткам
Продолжительность промежутка : 42 мс. (1,00 видеокадр)
Время предзагрузки промежутка : 500 мс.
ServiceKind/String : Complete Main
Download / Скачать

Хотите скачать бесплатно? Зарегистрируйтесь на сайте (ссылка на регистрацию). Pirat.ca - самый быстрый торрент трекер в рунете!

Как скачивать  ·   Что такое торрент  ·   Рейтинг и ограничения

Skat.56

Легенда

453

Пост 18-Апр-2018 16:50 (спустя 1 день 8 часов)

[Q] 

Смотрел корометражку, понравилось.

_________________
[Профиль]  [ЛС] 

katja2212

Лоцман

Пост 18-Апр-2018 19:11 (спустя 2 часа 21 минута)

[Q] 

Поглядим, что впихнули в полный метр Ку три раза
[Профиль]  [ЛС] 

Skala973

Флибустьер

Пост 18-Апр-2018 21:07 (спустя 1 час 55 минут)

[Q] 

Когда трейлер смотрел, то вроде бы фильм таким привлекательным показался, ну реально ждал, когда появится в качестве, здесь на раздаче.
А скачал, посмотрел... и оплевался.
Такая мутота ужасная!!! Штапм на штампе сидит, и штампом погоняет.
За раздачу, релизёру конечно же спасибо. Трудился человек.
А фильм - "элементарное КЮ".
[Профиль]  [ЛС] 

grosboy

Гроза морей

Пост 19-Апр-2018 16:17 (спустя 19 часов)

[Q] 

Фильм средненький. Не совсем го..но, но и не шедевр. Местами реально смешно, в целом сюжет понятен. На фоне последних российских комедий так даже ничего. Короче на один раз вполне сойдет... Приятного просмотра. Автору респект за труды.

_________________
Щастье есть - его не может не быть...
[Профиль]  [ЛС] 

vasdas

Корсар

Пост 23-Апр-2018 04:00 (спустя 3 дня)

[Q] 

короткометражку тоже смотрел и тоже понравилось, неужели полное кино не получилось, смотреть придётся по-любому, чтобы понять Раздающему респект!
[Профиль]  [ЛС] 

алексейка121212

Штурман

Пост 02-Май-2018 05:35 (спустя 9 дней)

[Q] 

нормальный кин. полный метр - кажется полностью переснят, а не доснят к короткому....
начало сюжета по смыслу аналогичное (как дубль), но видно что снято заново. прикольно.
[Профиль]  [ЛС] 

Роман Чистов

Шкипер

Пост 02-Май-2018 15:59 (спустя 10 часов)

[Q] 

Что-то вроде американского фильма "Спросите Синди". Но, американцы больше в мелодраматическую сторону ушли от комедии, а наши - в трэш нырнули. В целом, картина веселая, - но, - на один раз.
PS Ах, да - трейлер полностью переснят - подтверждаю).
[Профиль]  [ЛС] 

sashafandey

Морской Волк

Пост 03-Май-2018 22:58 (спустя 1 день 6 часов)

[Q] 

ржал реально давно такого не было
[Профиль]  [ЛС] 

_8165

Корсар

Пост 04-Май-2018 17:50 (спустя 18 часов)

[Q] 

Отличная комедия Лови бочку
[Профиль]  [ЛС] 

Skat.56

Легенда

453

Пост 06-Май-2018 04:18 (спустя 1 день 10 часов)

[Q] 

Буду краток Всем качать!!!
Дорогой Амбал16 спасибо тебе за жизней урок, дверь поменял, с уважением Skat.56.

_________________
[Профиль]  [ЛС] 

the_lame

Флибустьер

Пост 06-Май-2018 11:48 (спустя 7 часов)

[Q] 

Фильм смотрибельный и веселый, хоть и одноразовый. Рок мне больше понравился.
[Профиль]  [ЛС] 

lexaspirit

Пост 20-Май-2018 23:39 (спустя 14 дней)

[Q] 

На удивление отличный фильм. Есть много смешных моментов. Посмотреть можно

_________________
-------------------- ----------------------
[Профиль]  [ЛС] 

денис19780923

Шкипер

Пост 26-Май-2018 12:35 (спустя 5 дней)

[Q] 

мне понравилось,прикольный фильм!!!
[Профиль]  [ЛС] 
Показать сообщения:    
Ответить на тему

Текущее время: Сегодня 22:38

Часовой пояс: GMT + 4



Вы не можете начинать темы
Вы не можете отвечать на сообщения
Вы не можете редактировать свои сообщения
Вы не можете удалять свои сообщения
Вы не можете голосовать в опросах
Вы не можете прикреплять файлы к сообщениям
Вы не можете скачивать файлы

Майнать ▼