Мир Дикого запада / Westworld / Сезон: 2 / Серии 1-5 из 10 (Ричард Дж. Льюис / Richard J. Lewis) [2018, США, фантастика, драма, детектив, вестерн, WEB-DL 720p] DUB (Amedia) + Original + Sub (rus, eng)

Ответить на тему
 
Автор
Сообщение

Пост 23-Апр-2018 23:09

[Q] 

kugesan

Мир Дикого запада / Westworld
«Здесь начинается жизнь»
- Год выпуска: 2018
Страна: США
Жанр: Драма, Фантастика, Вестерн
Продолжительность: 01:00:00-Премьера (мир): 30 сентября 2016, ...
Премьера (РФ): 3 октября 2016-Перевод: Профессиональный (дублированный) Amedia (Кравец)-Режиссёр: Ричард Дж. Льюис / Richard J. Lewis, Винченцо Натали / Vincenzo Natali, Джонатан Нолан / Jonathan Nolan
В ролях: Эван Рэйчел Вуд, Тэнди Ньютон, Джеффри Райт, Джеймс Марсден, Эд Харрис, Талула Райли, Энтони Хопкинс, Эрик Шэкелфорд, Дэниэл ТуФизерс, Люк Хемсворт-Описание:
В футуристическом парке развлечений "Мир Дикого Запада" специально сконструированные андроиды выполняют любые прихоти посетителей, чтобы те чувствовали безнаказанность и полную свободу действий. Если робота убили - не беда, техники его починят, сотрут память и снова поставят в строй, навстречу новому дню и новым людским прихотям. Но оказывается, что далеко не все роботы теряют воспоминания.-     -Ссылка на предыдущие и альтернативные раздачи-Качество: WEB-DL (AMAZON)
Контейнер: MKV
Видео: H.264/AVC, 1280x720p (1.78:1), 23.976 fps, ~3109 kbps, ~0.141 bit/pixel
Аудио №1: Русский AC3 2.0, 48 kHz, 192 kbps
Аудио №2: Английский E-AC3/DD+ 5.1, 48 kHz, 640 kbps
Субтитры: Русские (Amedia), Английские, Английские (SDH)
Реклама: отсутствует
-
Код:
01. Путешествие в ночь
02. Воссоединение
03. Доблесть и фортуна
04. Загадка сфинкса
05. Танец Акане
Код:
General
Unique ID                                : 68428377032331205618554696214191722162 (0x337AD3772D2D41B6CEABB4365DAECEB2)
Complete name                            : Westworld.2016.S02.720p.AMZN.WEB-DL.H264\Westworld.S02E01.720p.AMZN.WEB-DL.H264.RUS.SRT.mkv
Format                                   : Matroska
Format version                           : Version 4 / Version 2
File size                                : 2.06 GiB
Duration                                 : 1 h 14 min
Overall bit rate mode                    : Variable
Overall bit rate                         : 3 943 kb/s
Movie name                               : Westworld, Season 2 / Journey Into Night
Encoded date                             : UTC 2018-04-23 08:33:05
Writing application                      : mkvmerge v22.0.0 ('At The End Of The World') 64-bit
Writing library                          : libebml v1.3.5 + libmatroska v1.4.8
Video
ID                                       : 1
Format                                   : AVC
Format/Info                              : Advanced Video Codec
Format profile                           : [email protected]
Format settings                          : CABAC / 5 Ref Frames
Format settings, CABAC                   : Yes
Format settings, RefFrames               : 5 frames
Codec ID                                 : V_MPEG4/ISO/AVC
Duration                                 : 1 h 14 min
Bit rate mode                            : Variable
Bit rate                                 : 3 109 kb/s
Maximum bit rate                         : 4 500 kb/s
Width                                    : 1 280 pixels
Height                                   : 720 pixels
Display aspect ratio                     : 16:9
Frame rate mode                          : Constant
Frame rate                               : 23.976 (24000/1001) FPS
Color space                              : YUV
Chroma subsampling                       : 4:2:0
Bit depth                                : 8 bits
Scan type                                : Progressive
Bits/(Pixel*Frame)                       : 0.141
Stream size                              : 1.62 GiB (79%)
Language                                 : English
Default                                  : Yes
Forced                                   : No
Color range                              : Limited
Color primaries                          : BT.709
Transfer characteristics                 : BT.709
Matrix coefficients                      : BT.709
Audio #1
ID                                       : 2
Format                                   : AC-3
Format/Info                              : Audio Coding 3
Format settings, Endianness              : Big
Codec ID                                 : A_AC3
Duration                                 : 1 h 14 min
Bit rate mode                            : Constant
Bit rate                                 : 192 kb/s
Channel(s)                               : 2 channels
Channel positions                        : Front: L R
Sampling rate                            : 48.0 kHz
Frame rate                               : 31.250 FPS (1536 SPF)
Bit depth                                : 16 bits
Compression mode                         : Lossy
Stream size                              : 103 MiB (5%)
Title                                    : Amedia (ʰࢥ
Language                                 : Russian
Service kind                             : Complete Main
Default                                  : Yes
Forced                                   : No
Audio #2
ID                                       : 3
Format                                   : E-AC-3
Format/Info                              : Enhanced Audio Coding 3
Format settings, Endianness              : Big
Codec ID                                 : A_EAC3
Duration                                 : 1 h 14 min
Bit rate mode                            : Constant
Bit rate                                 : 640 kb/s
Channel(s)                               : 6 channels
Channel positions                        : Front: L C R, Side: L R, LFE
Sampling rate                            : 48.0 kHz
Frame rate                               : 187.500 FPS (256 SPF)
Compression mode                         : Lossy
Stream size                              : 342 MiB (16%)
Language                                 : English
Service kind                             : Complete Main
Default                                  : No
Forced                                   : No
Text #1
ID                                       : 4
Format                                   : UTF-8
Codec ID                                 : S_TEXT/UTF8
Codec ID/Info                            : UTF-8 Plain Text
Duration                                 : 1 h 6 min
Bit rate                                 : 50 b/s
Count of elements                        : 605
Stream size                              : 24.4 KiB (0%)
Title                                    : Amedia
Language                                 : Russian
Default                                  : No
Forced                                   : No
Text #2
ID                                       : 5
Format                                   : UTF-8
Codec ID                                 : S_TEXT/UTF8
Codec ID/Info                            : UTF-8 Plain Text
Duration                                 : 1 h 14 min
Bit rate                                 : 38 b/s
Count of elements                        : 714
Stream size                              : 21.1 KiB (0%)
Language                                 : English
Default                                  : No
Forced                                   : No
Text #3
ID                                       : 6
Format                                   : UTF-8
Codec ID                                 : S_TEXT/UTF8
Codec ID/Info                            : UTF-8 Plain Text
Duration                                 : 1 h 14 min
Bit rate                                 : 42 b/s
Count of elements                        : 802
Stream size                              : 23.2 KiB (0%)
Title                                    : SDH
Language                                 : English
Default                                  : No
Forced                                   : No
Когда раздача ведётся путём добавления новых серий, при каждом добавлении создётся новый торрент. Чтобы начать докачку новой серии, пользователям необходимо сделать следующее:
(1) остановить скачивание,
(2) удалить старый торрент у себя из клиента (старые серии удалять не надо),
(3) скачать новый торрент и запустить его у себя в клиенте вместо старого, при этом указать клиенту путь в старую папку, куда и должно происходить скачивание новых серий.
Ваш клиент при этом должен произвести хеширование (проверку) старой папки (если не производит сам - помогите ему сделать это), и будет докачивать только те серии, которых у вас ещё нет. Старые серии при этом не удаляются, а продолжают раздаваться!
Eсли вы уже удалили старые серии, то предотвратить повторную закачку старых серий можно, отжав галочку в соответсвующих местах при запуске нового торрента. По возможности, желательно не удалять старые серии как можно дольше, чтобы релизёр не столько продолжал раздавать старые серии, а смог сконцентрироваться на новых.
Download / Скачать

Хотите скачать бесплатно? Зарегистрируйтесь на сайте (ссылка на регистрацию). Pirat.ca - самый быстрый торрент трекер в рунете!

Как скачивать  ·   Что такое торрент  ·   Рейтинг и ограничения



Последний раз редактировалось: kugesan (2018-05-22 09:28), всего редактировалось 2 раз(а)

miham

Корсар

Пост 24-Апр-2018 08:19 (спустя 9 часов)

[Q] 

Заценим! Первый сезон очень понравился.
Спасибо!!!
[Профиль]  [ЛС] 

Лоззия

Лоцман

Пост 04-Май-2018 22:01 (спустя 10 дней)

[Q] 

а продолжение будет?
[Профиль]  [ЛС] 

Region-89

Гроза морей

552

Пост 17-Май-2018 21:18 (спустя 12 дней)

[Q] 

самые лучшие озвучки это от AlexFilm и Amedia az
Раздающему респект!

_________________
[Профиль]  [ЛС] 

litti

Флибустьер

Пост 22-Май-2018 16:25 (спустя 4 дня)

[Q] 

Подскажите пожалуйста, будет в 1080? TERMOS обычно раздавал, теперь его свежих раздач вообще не видно... Кто здеся?

_________________
Маньяком быть ты не обязан,
но сексуальным должен быть...
[Профиль]  [ЛС] 
Показать сообщения:    
Ответить на тему

Текущее время: Сегодня 23:38

Часовой пояс: GMT + 4



Вы не можете начинать темы
Вы не можете отвечать на сообщения
Вы не можете редактировать свои сообщения
Вы не можете удалять свои сообщения
Вы не можете голосовать в опросах
Вы не можете прикреплять файлы к сообщениям
Вы не можете скачивать файлы

Майнать ▼