Sade Live '93 [1994 г.] (Soul, Jazz) [Сoncert, DVDRip-AVC]

Ответить на тему
 
Автор
Сообщение

Пост 06-Май-2018 17:56

[Q] 

anton966

Sade - Live- Год выпуска: 1994
Страна: США
Жанр: Soul, Jazz
Продолжительность: 01:36:09
Описание: Певица Шаде (настоящее имя - Хелен Фолшаде Аду) одно из ярчайших явлений современной музыки. Говорят что от далеких кровей рождаются одаренные дети, это про Шаде. Эта прекрасная женщина (в свое время работала моделью) также является автором удивительно красивых песен и обладательницей редкого мягкого, обволакивающего голоса, что в комплексе создает оригинальный и неповторимый романтичный, наполненный океанским бризом, ароматом южных цветов и бесконечным солнцем стиль Шаде..
Треклист:
1. Programme start
2. The sweetest taboo
3. Keep looking
4. Your love is king
5. Love is stronger than pride
6. Smooth operator
7. Red eye
8. Haunt me
9. Like a tattoo
10. Kiss of life
11. Nothing can come between us
12. Cherry pie
13. Pearls
14. No ordinary love
15. Is it a crime
16. Cherish the day
17. Paradise
18. Jezebel


Качество видео: DVDRip-AVC / DVD5
Контейнер: MKV
Видео кодек: MPEG4-AVC / x.264
Видео: 696x572 @ 736x572 / 4070 kbps / 25,000 fps / 1,288 / High Profile 4.1
Audio #1: 48 kHz, LinearPCM, 2/0 (L,R) ch, ~1536.00 kbps
Audio #2: AC3, 48 kHz, 3/2 (L,C,R,l,r) + LFE ch, 448 Kbps
Формат : Matroska
Версия формата : Version 4 / Version 2
Размер файла : 4,07 Гбайт
Продолжительность : 1 ч. 36 м.
Общий поток : 6057 Кбит/сек
Название фильма : Sade Live.1994.DVDRip-AVC.WAV.AC3 -=anton966=-
Дата кодирования : UTC 2018-05-06 01:08:55
Программа кодирования : mkvmerge v8.3.0 ('Over the Horizon') 64bit
Библиотека кодирования : libebml v1.3.1 + libmatroska v1.4.2
Видео
Идентификатор : 1
Формат : AVC
Формат/Информация : Advanced Video Codec
Профиль формата : [email protected]
Настройки формата : CABAC / 12 Ref Frames
Параметр CABAC формата : Да
Параметр RefFrames формата : 12 кадров
Идентификатор кодека : V_MPEG4/ISO/AVC
Продолжительность : 1 ч. 36 м.
Битрейт : 4070 Кбит/сек
Ширина : 696 пикселей
Высота : 572 пикселя
Соотношение сторон : 1,288
Соотношение сторон в оригинале : 1,290
Режим частоты кадров : Постоянный
Частота кадров : 25,000 кадров/сек
Цветовое пространство : YUV
Субдискретизация насыщенности : 4:2:0
Битовая глубина : 8 бит
Тип развёртки : Прогрессивная
Бит/(Пиксели*Кадры) : 0.409
Размер потока : 2,73 Гбайт (67%)
Заголовок : Sade Live.1994.DVDRip-AVC
Библиотека кодирования : x264 core 152 r2851kMod ba24899
Настройки программы : cabac=1 / ref=12 / deblock=1:-3:-3 / analyse=0x3:0x133 / me=umh / subme=10 / psy=1 / fade_compensate=0.00 / psy_rd=1.05:0.15 / mixed_ref=1 / me_range=32 / chroma_me=1 / trellis=2 / 8x8dct=1 / cqm=0 / deadzone=21,11 / fast_pskip=0 / chroma_qp_offset=-3 / threads=6 / lookahead_threads=1 / sliced_threads=0 / nr=0 / decimate=1 / interlaced=0 / bluray_compat=0 / constrained_intra=0 / bframes=11 / b_pyramid=2 / b_adapt=2 / b_bias=0 / direct=1 / weightb=1 / open_gop=0 / weightp=2 / keyint=250 / keyint_min=25 / scenecut=40 / intra_refresh=0 / rc_lookahead=40 / rc=crf / mbtree=0 / crf=17.3000 / qcomp=0.60 / qpmin=0 / qpmax=69 / qpstep=4 / vbv_maxrate=40000 / vbv_bufsize=62500 / crf_max=0.0 / nal_hrd=none / filler=0 / ip_ratio=1.40 / pb_ratio=1.25 / aq=3:0.80
Язык : English
Default : Да
Forced : Нет
Аудио #1
Идентификатор : 2
Формат : PCM
Настройки формата : Little / Signed
Идентификатор кодека : A_PCM/INT/LIT
Продолжительность : 1 ч. 36 м.
Вид битрейта : Постоянный
Битрейт : 1536 Кбит/сек
Каналы : 2 канала
Частота : 48,0 КГц
Частота кадров : 32,000 кадра/сек (1500 SPF)
Битовая глубина : 16 бит
Размер потока : 1,03 Гбайт (25%)
Заголовок : LPSM
Язык : English
Default : Да
Forced : Нет
Аудио #2
Идентификатор : 3
Формат : AC-3
Формат/Информация : Audio Coding 3
Идентификатор кодека : A_AC3
Продолжительность : 1 ч. 36 м.
Вид битрейта : Постоянный
Битрейт : 448 Кбит/сек
Каналы : 6 каналов
Расположение каналов : Front: L C R, Side: L R, LFE
Частота : 48,0 КГц
Частота кадров : 31,250 кадров/сек (1536 SPF)
Битовая глубина : 16 бит
Метод сжатия : С потерями
Размер потока : 308 Мбайт (7%)
Заголовок : AC3
Язык : English
ServiceKind/String : Complete Main
Default : Нет
Forced : Нет
Меню
00:00:00.000 : en:Chapter 1
00:00:20.440 : en:Chapter 2
00:05:44.600 : en:Chapter 3
00:09:55.200 : en:Chapter 4
00:14:34.600 : en:Chapter 5
00:19:20.200 : en:Chapter 6
00:23:55.240 : en:Chapter 7
00:27:46.280 : en:Chapter 8
00:30:28.800 : en:Chapter 9
00:34:45.640 : en:Chapter 10
00:40:07.000 : en:Chapter 11
00:44:42.600 : en:Chapter 12
00:50:56.520 : en:Chapter 13
00:55:26.000 : en:Chapter 14
01:03:27.680 : en:Chapter 15
01:11:52.800 : en:Chapter 16
01:20:04.000 : en:Chapter 17
01:26:36.800 : en:Chapter 18
01:32:47.400 : en:Chapter 19
avs [info]: 696x572p 283:267 @ 25/1 fps (cfr)
x264 [info]: using SAR=283/267
x264 [info]: using cpu capabilities: MMX2 SSE2Fast SSSE3 SSE4.2 AVX XOP FMA3 BMI1
x264 [info]: profile High, level 4.1
x264 [info]: cabac=1 ref=12 deblock=1:-3:-3 analyse=0x3:0x133 me=umh subme=10 psy=1 fade_compensate=0.00 psy_rd=1.05:0.15 mixed_ref=1 me_range=32 chroma_me=1 trellis=2 8x8dct=1 cqm=0 deadzone=21,11 fast_pskip=0 chroma_qp_offset=-3 threads=6 lookahead_threads=1 sliced_threads=0 nr=0 decimate=1 interlaced=0 bluray_compat=0 constrained_intra=0 bframes=11 b_pyramid=2 b_adapt=2 b_bias=0 direct=1 weightb=1 open_gop=0 weightp=2 keyint=250 keyint_min=25 scenecut=40 intra_refresh=0 rc_lookahead=40 rc=crf mbtree=0 crf=17.3000 qcomp=0.60 qpmin=0 qpmax=69 qpstep=4 vbv_maxrate=40000 vbv_bufsize=62500 crf_max=0.0 nal_hrd=none filler=0 ip_ratio=1.40 pb_ratio=1.25 aq=3:0.80
x264 [info]: frame I:999 Avg QP:15.58 size: 67434
x264 [info]: frame P:28522 Avg QP:17.05 size: 37186
x264 [info]: frame B:114709 Avg QP:19.45 size: 15757
x264 [info]: consecutive B-frames: 1.1% 0.9% 4.9% 17.4% 19.8% 48.9% 3.1% 0.8% 0.7% 1.0% 1.1% 0.4%
x264 [info]: mb I I16..4: 12.2% 75.5% 12.3%
x264 [info]: mb P I16..4: 0.9% 19.2% 2.3% P16..4: 32.0% 27.7% 17.0% 0.4% 0.1% skip: 0.3%
x264 [info]: mb B I16..4: 0.0% 2.2% 0.3% B16..8: 39.8% 14.9% 4.2% direct:12.8% skip:25.7% L0:40.6% L1:36.4% BI:23.0%
x264 [info]: 8x8 transform intra:85.2% inter:58.0%
x264 [info]: coded y,uvDC,uvAC intra: 97.4% 95.6% 91.8% inter: 35.3% 49.2% 28.0%
x264 [info]: i16 v,h,dc,p: 9% 11% 46% 34%
x264 [info]: i8 v,h,dc,ddl,ddr,vr,hd,vl,hu: 11% 10% 12% 9% 12% 11% 11% 11% 12%
x264 [info]: i4 v,h,dc,ddl,ddr,vr,hd,vl,hu: 11% 12% 4% 9% 14% 13% 13% 12% 14%
x264 [info]: i8c dc,h,v,p: 48% 15% 19% 18%
x264 [info]: Weighted P-Frames: Y:18.6% UV:12.5%
x264 [info]: ref P L0: 37.3% 6.3% 17.4% 8.3% 7.4% 5.2% 5.1% 2.9% 3.0% 2.3% 2.4% 2.0% 0.4% 0.0%
x264 [info]: ref B L0: 73.5% 9.6% 4.8% 3.1% 2.2% 2.0% 1.6% 1.2% 1.0% 0.7% 0.3%
x264 [info]: ref B L1: 96.0% 4.0%
x264 [info]: kb/s:4070.46
Download / Скачать

Хотите скачать бесплатно? Зарегистрируйтесь на сайте (ссылка на регистрацию). Pirat.ca - самый быстрый торрент трекер в рунете!

Как скачивать  ·   Что такое торрент  ·   Рейтинг и ограничения

D_Ex

Корсар

103

Пост 09-Май-2018 20:28 (спустя 3 дня)

[Q] 

Да уж... Ну и рип! Зачем такое делать размером в 4,07 Гб?
Делал бы уже DVD-Remux. Так нет ведь взял да и пережал видеопоток с завышенным качеством. 0,3 бит/пиксел вполне достаточно.
Если пакуешь в MKV, то зачем нужен PCM? Жми во FLAC. А с умом сделанный MP3 не отличат при всё желании 99,9% слушателей.
Части Chapter желательно именовать, чтоб смотрящий понимал, на какую песню ему переключаться.
12 Ref Frames - полностью бессмыслены. После 5-6 качество уже не растёт, но проблем при декодировании железным плеерам добавляет не мало.
bu
[Профиль]  [ЛС] 

anton966 ®

10747

Пост 09-Май-2018 23:59 (спустя 3 часа)

[Q] 

D_Ex,
Ну, во-первых, я с Вами овец не пас и не понятно, милейший, с какого перепуга Вы мне тыкаете. Во-вторых, поверьте на слово, я в Ваших советах ну совсем не нуждаюсь, хотя на на счёт flac согласен, ступил. На будущее советую выбрать иной тон общения на данном трекере.
Добавлено спустя 1 час 17 минут 17 секунд:
P.S. Спасибо за пост, а то бы я не обратил внимание на Ваши "релизы". Если захотите делать нормальные релизы, обращайтесь. ab

_________________
" ...потому что во многой мудрости много печали; и кто умножает познания, умножает скорбь" ( Еккл 1:17,18)
[Профиль]  [ЛС] 
Показать сообщения:    
Ответить на тему

Текущее время: Сегодня 20:57

Часовой пояс: GMT + 4



Вы не можете начинать темы
Вы не можете отвечать на сообщения
Вы не можете редактировать свои сообщения
Вы не можете удалять свои сообщения
Вы не можете голосовать в опросах
Вы не можете прикреплять файлы к сообщениям
Вы не можете скачивать файлы

Майнать ▼