Sade: Bring Me Home - Live 2011 [2012, Soul, Soft Jazz, BDRip-AVC]

Ответить на тему
 
Автор
Сообщение

Пост 07-Май-2018 14:15

[Q] 

anton966

Sade: Bring Me Home - Live 2011- Год выпуска: 2012
Страна: США
Жанр: Soul, Soft Jazz
Продолжительность: 02:02:08
Описание: В 2011 году, после 10-летнего молчания, Sade верулась на сцену и дала концерты во многих странах мира по Европе, Северной и Южной Америке и, в том числе России. Группа проехала с турне по одной толькой Северной Америке долгих три месяца и дала 54 концерта в поддержку мультиплатинового альбома "Soldier of Love", который оказался среди самых прибыльных за прошлый год.
Режиссёром фильма о концерте в очередной раз стала широко известная Софи Мюллер, которая снимала многочисленные концерты в ходе американской части тура, и, в итоге выбрала самые интересные моменты различных выступлений для создания фильма. В ходе турне Шадэ Аду и её группа исполнили 22 песни, среди которых как самые свежие, так и её самые знаменитые композиции, которые она представила на "самой креативной сценической постановке", судя по номинации Pollstar. Благодаря столь задушевным вибрациям, захватывающей постановке и ошеломляющим зрительным образам, этот концерт станет непременным подарком любому поклоннику прекрасной музыки "Sade"!
Названный, в частности, "лучшим концертом года" газетой Baltimore Sun, прошлогодний тур будет представлен 22 мая 2012 года в виде DVD/CD и Blu-ray диска под общим названием “Bring Me Home – Live 2011”
.
Треклист:
01. Soldier Of Love
02. Your Love Is King
03. Skin
04. Kiss Of Life
05. Love Is Found
06. In Another Time
07. Smooth Operator
08. Jezebel
09. Bring Me Home
10. Is It A Crime
11. Love Is Stronger Than Pride
12. All About Our Love
13. Paradise
14. Nothing Can Come Between Us
15. Morning Bird
16. King Of Sorrow
17. The Sweetest Taboo
18. The Moon And The Sky
19. Pearls
20. No Ordinary Love
21. By Your Side
22. Cherish the Day


Качество видео: BDRip-AVC
Контейнер: MKV
Видео кодек: MPEG4-AVC / x.264
Видео: 1120x630 / 3405 kbps / 23,976 fps / 16:9 / High Profile 4.1
Audio #1: 48 kHz, FLAC, 2/0 (L,R) ch, ~1699.00 kbps
Audio #2: DTS, 48 kHz, 3/2 (L,C,R,l,r) + LFE ch, 1509 Kbps
Формат : Matroska
Версия формата : Version 4 / Version 2
Размер файла : 5,64 Гбайт
Продолжительность : 2 ч. 2 м.
Режим общего битрейта : Переменный
Общий поток : 6614 Кбит/сек
Название фильма : Sade - Bring Me Home.Live.2011.BDRip-AVC.DTS.Flac -=anton966=-
Дата кодирования : UTC 2018-05-07 09:41:47
Программа кодирования : mkvmerge v8.3.0 ('Over the Horizon') 64bit
Библиотека кодирования : libebml v1.3.1 + libmatroska v1.4.2
Видео
Идентификатор : 1
Формат : AVC
Формат/Информация : Advanced Video Codec
Профиль формата : [email protected]
Настройки формата : CABAC / 11 Ref Frames
Параметр CABAC формата : Да
Параметр RefFrames формата : 11 кадров
Идентификатор кодека : V_MPEG4/ISO/AVC
Продолжительность : 2 ч. 2 м.
Битрейт : 3406 Кбит/сек
Ширина : 1120 пикселей
Высота : 630 пикселей
Соотношение сторон : 16:9
Режим частоты кадров : Постоянный
Частота кадров : 23,976 (23976/1000) кадра/сек
Цветовое пространство : YUV
Субдискретизация насыщенности : 4:2:0
Битовая глубина : 8 бит
Тип развёртки : Прогрессивная
Бит/(Пиксели*Кадры) : 0.201
Размер потока : 2,90 Гбайт (51%)
Заголовок : Sade - Bring Me Home.Live.2011.BDRip-AVC
Библиотека кодирования : x264 core 152 r2851kMod ba24899
Настройки программы : cabac=1 / ref=11 / deblock=1:-3:-3 / analyse=0x3:0x113 / me=umh / subme=10 / psy=1 / fade_compensate=0.00 / psy_rd=1.03:0.10 / mixed_ref=1 / me_range=32 / chroma_me=1 / trellis=2 / 8x8dct=1 / cqm=0 / deadzone=21,11 / fast_pskip=0 / chroma_qp_offset=-3 / threads=6 / lookahead_threads=1 / sliced_threads=0 / nr=0 / decimate=1 / interlaced=0 / bluray_compat=0 / constrained_intra=0 / bframes=13 / b_pyramid=2 / b_adapt=2 / b_bias=0 / direct=1 / weightb=1 / open_gop=0 / weightp=2 / keyint=250 / keyint_min=23 / scenecut=40 / intra_refresh=0 / rc_lookahead=40 / rc=crf / mbtree=0 / crf=19.3000 / qcomp=0.60 / qpmin=0 / qpmax=69 / qpstep=4 / vbv_maxrate=40000 / vbv_bufsize=62500 / crf_max=0.0 / nal_hrd=none / filler=0 / ip_ratio=1.40 / pb_ratio=1.30 / aq=3:0.80
Язык : English
Default : Да
Forced : Нет
Цветовой диапазон : Limited
Основные цвета : BT.709
Характеристики трансфера : BT.709
Коэффициенты матрицы : BT.709
Аудио #1
Идентификатор : 2
Формат : FLAC
Формат/Информация : Free Lossless Audio Codec
Идентификатор кодека : A_FLAC
Продолжительность : 2 ч. 2 м.
Вид битрейта : Переменный
Битрейт : 1699 Кбит/сек
Каналы : 2 канала
Расположение каналов : Front: L R
Частота : 48,0 КГц
Частота кадров : 11,719 кадров/сек (4096 SPF)
Битовая глубина : 24 бит
Размер потока : 1,45 Гбайт (26%)
Заголовок : Flac 2.0
Библиотека кодирования : libFLAC 1.2.1 (UTC 2007-09-17)
Язык : English
Default : Да
Forced : Нет
Аудио #2
Идентификатор : 3
Формат : DTS
Формат/Информация : Digital Theater Systems
Идентификатор кодека : A_DTS
Продолжительность : 2 ч. 2 м.
Вид битрейта : Постоянный
Битрейт : 1509 Кбит/сек
Каналы : 6 каналов
Расположение каналов : Front: L C R, Side: L R, LFE
Частота : 48,0 КГц
Частота кадров : 93,750 кадра/сек (512 SPF)
Битовая глубина : 24 бит
Метод сжатия : С потерями
Размер потока : 1,29 Гбайт (23%)
Заголовок : DTS 5.1
Язык : English
Default : Нет
Forced : Нет
Меню
00:00:00.000 : en:Soldier of Love
00:07:55.474 : en:Your Love is King
00:12:53.606 : en:Skin
00:16:52.011 : en:Kiss of Life
00:21:54.313 : en:Love is Found
00:27:14.632 : en:In Another Time
00:31:42.901 : en:Smooth Operator (video intro)
00:34:51.089 : en:Smooth Operator
00:39:20.858 : en:Jezebel
00:46:19.777 : en:Bring Me Home
00:50:30.027 : en:Is it a Crime
00:58:45.522 : en:Love is Stronger Than Pride
01:03:23.800 : en:All About Our Love
01:06:01.958 : en:Paradise
01:09:58.027 : en:Nothing Can Come Between Us
01:12:23.339 : en:Morning Bird
01:17:00.616 : en:King of Sorrow
01:21:05.235 : en:The Sweetest Taboo
01:26:12.709 : en:The Moon and the Sky
01:30:48.443 : en:Pearls
01:35:24.719 : en:No Ordinary Love
01:41:14.068 : en:By Your Side
01:51:39.192 : en:Cherish the Day
01:58:54.127 : en:The Safest Place (closing credits)
02:02:01.355 : en:In the Trenches (extra)
avs [info]: 1120x630p 1:1 @ 2997/125 fps (cfr)
x264 [info]: using SAR=1/1
x264 [info]: using cpu capabilities: MMX2 SSE2Fast SSSE3 SSE4.2 AVX XOP FMA3 BMI1
x264 [info]: profile High, level 4.1
x264 [info]: cabac=1 ref=11 deblock=1:-3:-3 analyse=0x3:0x113 me=umh subme=10 psy=1 fade_compensate=0.00 psy_rd=1.03:0.10 mixed_ref=1 me_range=32 chroma_me=1 trellis=2 8x8dct=1 cqm=0 deadzone=21,11 fast_pskip=0 chroma_qp_offset=-3 threads=6 lookahead_threads=1 sliced_threads=0 nr=0 decimate=1 interlaced=0 bluray_compat=0 constrained_intra=0 bframes=13 b_pyramid=2 b_adapt=2 b_bias=0 direct=1 weightb=1 open_gop=0 weightp=2 keyint=250 keyint_min=23 scenecut=40 intra_refresh=0 rc_lookahead=40 rc=crf mbtree=0 crf=19.3000 qcomp=0.60 qpmin=0 qpmax=69 qpstep=4 vbv_maxrate=40000 vbv_bufsize=62500 crf_max=0.0 nal_hrd=none filler=0 ip_ratio=1.40 pb_ratio=1.30 aq=3:0.80
x264 [info]: frame I:1390 Avg QP:16.46 size: 71226
x264 [info]: frame P:38980 Avg QP:18.57 size: 34171
x264 [info]: frame B:135167 Avg QP:20.92 size: 12473
x264 [info]: consecutive B-frames: 2.1% 2.5% 7.4% 28.9% 20.0% 28.7% 3.8% 1.0% 1.5% 0.7% 1.0% 0.4% 1.2% 0.7%
x264 [info]: mb I I16..4: 16.4% 65.0% 18.5%
x264 [info]: mb P I16..4: 3.2% 19.2% 2.4% P16..4: 30.3% 20.1% 10.3% 0.0% 0.0% skip:14.5%
x264 [info]: mb B I16..4: 0.4% 1.8% 0.2% B16..8: 32.4% 10.3% 3.0% direct: 9.8% skip:42.2% L0:43.4% L1:41.9% BI:14.8%
x264 [info]: 8x8 transform intra:76.1% inter:68.7%
x264 [info]: coded y,uvDC,uvAC intra: 74.4% 74.1% 51.7% inter: 26.7% 27.1% 7.3%
x264 [info]: i16 v,h,dc,p: 39% 15% 11% 36%
x264 [info]: i8 v,h,dc,ddl,ddr,vr,hd,vl,hu: 13% 9% 14% 9% 12% 11% 11% 10% 11%
x264 [info]: i4 v,h,dc,ddl,ddr,vr,hd,vl,hu: 16% 12% 8% 8% 12% 12% 11% 10% 11%
x264 [info]: i8c dc,h,v,p: 43% 24% 19% 14%
x264 [info]: Weighted P-Frames: Y:12.6% UV:8.0%
x264 [info]: ref P L0: 45.4% 10.3% 16.1% 7.3% 5.3% 4.1% 3.4% 2.2% 2.0% 1.8% 1.7% 0.2% 0.0%
x264 [info]: ref B L0: 74.3% 10.7% 5.5% 2.8% 2.1% 1.6% 1.3% 0.9% 0.6% 0.3%
x264 [info]: ref B L1: 95.0% 5.0%
x264 [info]: kb/s:3405.80
Download / Скачать

Хотите скачать бесплатно? Зарегистрируйтесь на сайте (ссылка на регистрацию). Pirat.ca - самый быстрый торрент трекер в рунете!

Как скачивать  ·   Что такое торрент  ·   Рейтинг и ограничения



Последний раз редактировалось: anton966 (2018-05-09 02:06), всего редактировалось 3 раз(а)

anton966 ®

10747

Пост 07-Май-2018 14:18 (спустя 2 минуты)

[Q] 

Как шоу, конечно, потрясающе, но именно как концерт Шаде мне больше нравится 1993г., выложенный вчера.

_________________
" ...потому что во многой мудрости много печали; и кто умножает познания, умножает скорбь" ( Еккл 1:17,18)
[Профиль]  [ЛС] 
Показать сообщения:    
Ответить на тему

Текущее время: Сегодня 20:57

Часовой пояс: GMT + 4



Вы не можете начинать темы
Вы не можете отвечать на сообщения
Вы не можете редактировать свои сообщения
Вы не можете удалять свои сообщения
Вы не можете голосовать в опросах
Вы не можете прикреплять файлы к сообщениям
Вы не можете скачивать файлы

Майнать ▼