Леди Баг и Супер-Кот / Miraculous: Tales of Ladybug and Cat Noir / Сезон: 2 / Серии: 1-6,8-12 из 15 (Томас Астрюк / Thomas Astruc) [2016-2018 г., мультфильм, фэнтези,семейный, WEB-DLRip, 1080p] Dub+Sub[Eng]+Спецэпизоды(Обновляемая)

Ответить на тему
 
Автор
Сообщение

Пост 10-Май-2018 15:08

[Q] 

AlexDjas

Флибустьер

--Леди Баг и Супер-Кот / Miraculous: Tales of Ladybug and Cat Noir--«Time to de-evilize!»-- Производство: Франция, Корея Южная, Япония
Режиссёр: Томас Астрюк/ Thomas Astruc
Жанр: мультфильм, фэнтези, боевик, мелодрама, приключения, семейный
Год выпуска: 2016-2018 г.
Продолжительность:~ 00:22:00 серия
Мировая премьера: 19 октября 2015
Российская премьера: 19 декабря 2015
Перевод: Профессиональный (полное дублирование) [студия Кириллица]
Роли озвучивали: Кристина Валенсуела, Бен Дискин, Фанни Блок, Бенжамин Болен, Мари Шевало, Анук Отбуа, Тьерри Казазиан, Жильбер Леви, Александр Н’Гуэн
Роли дублировали: Дарья Фролова, Елена Шульман, Александр Шестопалов, Диомид Виноградов, Лариса Брохман--Описание: Адриан и Маринетт — старшеклассники, почти как все остальные. При малейшей угрозе Парижу они становятся ЛедиБаг и Котом Нуаром. Их миссия — захватить акум (тёмных бабочек), которые превращают людей в суперзлодеев. Когда герои объединяются, каждый из них не знает истинной личности другого. Маринетт не знает, что Кот Нуар на самом деле Адриан — мальчик в которого она тайно влюблена, а Адриан, чьё сердце бьётся ради ЛедиБаг, не знает, что под маской супер-героини скрывается милая и ветреная одноклассница.--
Качество видео: WEB-DLRip
Контейнер: MKV
Стандарт разрешения: 1080p
Видео кодек: MPEG4 AVC
Аудио кодек: AC3
Видео: Н.264/AVC, 1920x1080 (16:9), ~5000 Kbps, 25 fps
Аудио: AC3, 48 kHz, 2 ch, 192 kbps - русский
Аудио#2: AC3, 48 kHz, 6 ch, 384 kbps - английский
Cубтитры: английские
Общее
Уникальный идентификатор : 232723994204769956997054925867655376538 (0xAF1502CBC2A8E031250B6D0365882E9A)
Полное имя : D:\Мульт\Miraculous.Tales.of.Ladybug.and.Cat.Noir.s02\S02E01.The.Collector.mkv
Формат : Matroska
Версия формата : Version 4 / Version 2
Размер файла : 770 Мбайт
Продолжительность : 21 м. 37 с.
Режим общего битрейта : Переменный
Общий поток : 4978 Кбит/сек
Дата кодирования : UTC 2018-04-01 16:13:33 / UTC 2017-11-24 18:20:32
Программа кодирования : mkvmerge v20.0.0 ('I Am The Sun') 64-bit
Библиотека кодирования : libebml v1.3.5 + libmatroska v1.4.8 / Lavf58.0.0
Видео
Идентификатор : 1
Формат : AVC
Формат/Информация : Advanced Video Codec
Профиль формата : Main@L4
Настройки формата : CABAC / 3 Ref Frames
Параметр CABAC формата : Да
Параметр RefFrames формата : 3 кадра
Идентификатор кодека : V_MPEG4/ISO/AVC
Продолжительность : 21 м. 37 с.
Вид битрейта : Переменный
Битрейт : 4420 Кбит/сек
Максимальный битрейт : 6630 Кбит/сек
Ширина : 1920 пикселей
Высота : 1080 пикселей
Соотношение сторон : 16:9
Режим частоты кадров : Постоянный
Частота кадров : 25,000 кадров/сек
Цветовое пространство : YUV
Субдискретизация насыщенности : 4:2:0
Битовая глубина : 8 бит
Тип развёртки : Прогрессивная
Бит/(Пиксели*Кадры) : 0.085
Размер потока : 665 Мбайт (86%)
Библиотека кодирования : x264 core 148 r2714 2daf636
Настройки программы : cabac=1 / ref=3 / deblock=1:0:0 / analyse=0x1:0x111 / me=umh / subme=10 / psy=1 / psy_rd=1.00:0.00 / mixed_ref=1 / me_range=24 / chroma_me=1 / trellis=2 / 8x8dct=0 / cqm=0 / deadzone=21,11 / fast_pskip=1 / chroma_qp_offset=-2 / threads=8 / lookahead_threads=1 / sliced_threads=0 / nr=0 / decimate=1 / interlaced=0 / bluray_compat=0 / stitchable=1 / constrained_intra=0 / bframes=2 / b_pyramid=0 / b_adapt=2 / b_bias=0 / direct=3 / weightb=1 / open_gop=0 / weightp=2 / keyint=50 / keyint_min=26 / scenecut=0 / intra_refresh=0 / rc_lookahead=50 / rc=2pass / mbtree=1 / bitrate=4420 / ratetol=1.0 / qcomp=0.50 / qpmin=6 / qpmax=51 / qpstep=4 / cplxblur=20.0 / qblur=0.5 / vbv_maxrate=6630 / vbv_bufsize=8840 / nal_hrd=vbr / filler=0 / ip_ratio=1.40 / aq=1:1.00
Default : Да
Forced : Нет
Statistics Tags Issue : mkvmerge v20.0.0 ('I Am The Sun') 64-bit 2018-04-01 16:13:33 / mkvmerge v20.0.0 ('I Am The Sun') 64-bit 2018-04-01 16:13:33 / UTC 2017-11-24 18:20:32
FromStats_BitRate : 4401682
FromStats_Duration : 00:21:36.600000000
FromStats_FrameCount : 32415
FromStats_StreamSize : 713402654
Аудио #1
Идентификатор : 2
Формат : AC-3
Формат/Информация : Audio Coding 3
Идентификатор кодека : A_AC3
Продолжительность : 21 м. 37 с.
Вид битрейта : Постоянный
Битрейт : 192 Кбит/сек
Каналы : 2 канала
Расположение каналов : Front: L R
Частота : 48,0 КГц
Частота кадров : 31,250 кадров/сек (1536 SPF)
Битовая глубина : 16 бит
Метод сжатия : С потерями
Размер потока : 29,7 Мбайт (4%)
Язык : Russian
ServiceKind/String : Complete Main
Default : Да
Forced : Нет
Statistics Tags Issue : mkvmerge v20.0.0 ('I Am The Sun') 64-bit 2018-04-01 16:13:33 / mkvmerge v20.0.0 ('I Am The Sun') 64-bit 2018-04-01 16:13:33 / UTC 2017-11-24 18:20:32
FromStats_BitRate : 192000
FromStats_Duration : 00:21:37.184000000
FromStats_FrameCount : 40537
FromStats_StreamSize : 31132416
Аудио #2
Идентификатор : 3
Формат : AC-3
Формат/Информация : Audio Coding 3
Идентификатор кодека : A_AC3
Продолжительность : 21 м. 37 с.
Вид битрейта : Постоянный
Битрейт : 384 Кбит/сек
Каналы : 6 каналов
Расположение каналов : Front: L C R, Side: L R, LFE
Частота : 48,0 КГц
Частота кадров : 31,250 кадров/сек (1536 SPF)
Битовая глубина : 16 бит
Метод сжатия : С потерями
Размер потока : 59,4 Мбайт (8%)
Язык : English
ServiceKind/String : Complete Main
Default : Нет
Forced : Нет
Дата кодирования : UTC 2017-11-24 18:20:32
Statistics Tags Issue : mkvmerge v20.0.0 ('I Am The Sun') 64-bit 2018-04-01 16:13:33 / mkvmerge v20.0.0 ('I Am The Sun') 64-bit 2018-04-01 16:13:33 / UTC 2017-11-24 18:20:32
FromStats_BitRate : 384000
FromStats_Duration : 00:21:37.184000000
FromStats_FrameCount : 40537
FromStats_StreamSize : 62264832
Текст
Идентификатор : 4
Формат : UTF-8
Идентификатор кодека : S_TEXT/UTF8
Идентификатор кодека/Информация : UTF-8 Plain Text
Заголовок : English
Язык : English
Default : Нет
Forced : Нет
Statistics Tags Issue : mkvmerge v20.0.0 ('I Am The Sun') 64-bit 2018-04-01 16:13:33 / mkvmerge v20.0.0 ('I Am The Sun') 64-bit 2018-04-01 16:13:33 / UTC 2017-11-24 18:20:32
FromStats_BitRate : 74
FromStats_Duration : 00:21:00.800000000
FromStats_FrameCount : 280
FromStats_StreamSize : 11706
01. The.Collector/Собиратель
02. Prime.Queen/Королева Прайм-тайма
03. Despair.Bear/Гневный мишка
04. Riposte/Укол
05. Befana/Бефана
06. Robustus/Робостус
07.
08. Gigantitan/Гигантитан
09. Glaciator/Лединатор
10. Sapotis/Сапотисы
11.Gorizilla/Горизилла
12.Captain Hardrock/Капитан Хардрок
Качество видео: SATRip
Контейнер: TS
Видео кодек: MPEG4 AVC
Аудио кодек: MP3
Видео: Н.264/AVC, 720x576 (4:3), 25 fps, 2072 kbps
Аудио: MP3, 2 сh, 48 kHz, 192 kbps
Перевод: Профессиональный (полное дублирование) [студия Кириллица]
Общее
Идентификатор : 1 (0x1)
Полное имя : D:\Мульт\Miraculous.Tales.of.Ladybug.and.Cat.Noir.s02[pirat.ca]\Спецэпизоды\Miraculous LadyBug. Special Christmas.2016.ts
Формат : MPEG-TS
Размер файла : 369 Мбайт
Продолжительность : 21 м. 39 с.
Режим общего битрейта : Переменный
Общий поток : 2384 Кбит/сек
Видео
Идентификатор : 212 (0xD4)
Идентификатор меню : 1312 (0x520)
Формат : AVC
Формат/Информация : Advanced Video Codec
Профиль формата : High@L3
Настройки формата : CABAC / 4 Ref Frames
Параметр CABAC формата : Да
Параметр RefFrames формата : 4 кадра
Идентификатор кодека : 27
Продолжительность : 21 м. 39 с.
Битрейт : 2072 Кбит/сек
Ширина : 720 пикселей
Высота : 576 пикселей
Соотношение сторон : 4:3
Частота кадров : 25,000 кадров/сек
Стандарт вещания : Component
Цветовое пространство : YUV
Субдискретизация насыщенности : 4:2:0
Битовая глубина : 8 бит
Тип развёртки : Чересстрочная
Метод сохранения типа развёртки : Раздельные поля
Порядок развёртки : Верхнее поле первое
Бит/(Пиксели*Кадры) : 0.200
Размер потока : 321 Мбайт (87%)
Цветовой диапазон : Limited
Основные цвета : BT.601 PAL
Характеристики трансфера : BT.470 System B/G
Коэффициенты матрицы : BT.470 System B/G
Аудио
Идентификатор : 312 (0x138)
Идентификатор меню : 1312 (0x520)
Формат : MPEG Audio
Версия формата : Version 1
Профиль формата : Layer 2
Идентификатор кодека : 3
Продолжительность : 21 м. 39 с.
Вид битрейта : Постоянный
Битрейт : 192 Кбит/сек
Каналы : 2 канала
Частота : 48,0 КГц
Частота кадров : 41,667 кадра/сек (1152 SPF)
Метод сжатия : С потерями
Размер потока : 29,8 Мбайт (8%)
Язык : Russian
Спецэпизоды так же будут добавляться и заменяться на более качественные по мере выхода в полном дубляже.
Раздача ведётся путём добавления новых серий; при каждом добавлении создаётся новый торрент.
Чтобы начать докачку новой серии, пользователям необходимо сделать следующее:
1. остановить скачивание,
2. удалить старый торрент у себя из клиента (старые серии удалять не надо),
3. скачать новый торрент и запустить его у себя в клиенте вместо старого, при этом указать клиенту путь в старую папку, куда и должно происходить скачивание новых серий.
Ваш клиент при этом должен произвести хеширование (проверку) старой папки (если не производит сам - помогите ему сделать это), и будет докачивать только те серии которых у вас ещё нет. Старые серии при этом не удаляются, а продолжают раздаваться!
Eсли вы уже удалили старые серии, то предотвратить повторную закачку старых серий можно, отжав галочку в соответствующих местах при запуске нового торрента. По возможности, желательно не удалять старые серии как можно дольше, чтобы релизёр не столько продолжал раздавать старые серии, а смог сконцентрироваться на новых.
Совет для тех, кто не хочет ждать перехеширования:
Создайте ещё одну папку рядом с папкой сериала (рядом, а не в ней!!!). Каждую новую серию после удачной загрузки копируйте в новую папку так чтобы ваша основная папка всегда была пуста. Когда ваш новый торрент предложит вам закачать все файлы, выберете только последнюю. Для сидирования же укажите адрес новой папки.
Как закачать отдельный файл из торрента или докачать ранее пропущенные файлы торрента!
1. Открыть торрент
2. Снять галки с тех файлов торрента, которые мы не хотим закачивать. Оставляем только на нужных нам файлах (файле).
3. Нажать О.К.
В клиенте utorrent
Инструкция
1) Открыть торрент

2) Снять галки с тех файлов торрента, которые мы не хотим закачивать:
* либо вручную, снимая с каждого файла галку( скрин №1)
* либо, нажав кнопку "Снять метки (Select None)", сняв сразу со всех файлов(скрин №2)
№1

№2

Оставляем только на нужных нам файлах (файле).

3)Нажать О.К
Download / Скачать

Хотите скачать бесплатно? Зарегистрируйтесь на сайте (ссылка на регистрацию). Pirat.ca - самый быстрый торрент трекер в рунете!

Как скачивать  ·   Что такое торрент  ·   Рейтинг и ограничения

AlexDjas ®

Флибустьер

5411

Пост 09-Июн-2018 16:17 (спустя 30 дней)

[Q] 

Добавлены 11 и 12 серии. Заменены 9 и 10 серии в связи с выходом в новом дубляже (на момент выпуска серий дубляж делали другие актеры).

_________________
- Один терапевт - это 1024 гигапевта, или 1048576 мегапевтов!
[Профиль]  [ЛС] 
Показать сообщения:    
Ответить на тему

Текущее время: Сегодня 14:57

Часовой пояс: GMT + 4



Вы не можете начинать темы
Вы не можете отвечать на сообщения
Вы не можете редактировать свои сообщения
Вы не можете удалять свои сообщения
Вы не можете голосовать в опросах
Вы не можете прикреплять файлы к сообщениям
Вы не можете скачивать файлы

Майнать ▼