Леди Баг и Супер-Кот / Miraculous: Tales of Ladybug and Cat Noir / Сезон: 2 / Серии: 1-26 из 26 (Томас Астрюк / Thomas Astruc) [2016-2018 г., мультфильм, фэнтези,семейный, WEB-DLRip, 1080p] Dub+Sub[Eng]+Спецэпизоды(Обновляемая)

Ответить на тему
 
Автор
Сообщение

Пост 10-Май-2018 15:08

[Q] 

AlexDjas

--Леди Баг и Супер-Кот / Miraculous: Tales of Ladybug and Cat Noir--«Time to de-evilize!»-- Производство: Франция, Корея Южная, Япония
Режиссёр: Томас Астрюк/ Thomas Astruc
Жанр: мультфильм, фэнтези, боевик, мелодрама, приключения, семейный
Год выпуска: 2016-2018 г.
Продолжительность:~ 00:22:00 серия
Мировая премьера: 19 октября 2015
Российская премьера: 19 декабря 2015
Перевод: Профессиональный (полное дублирование) [студия Кириллица]
Роли озвучивали: Кристина Валенсуела, Бен Дискин, Фанни Блок, Бенжамин Болен, Мари Шевало, Анук Отбуа, Тьерри Казазиан, Жильбер Леви, Александр Н’Гуэн
Роли дублировали: Дарья Фролова, Елена Шульман, Александр Шестопалов, Диомид Виноградов, Лариса Брохман--Описание: Адриан и Маринетт — старшеклассники, почти как все остальные. При малейшей угрозе Парижу они становятся ЛедиБаг и Котом Нуаром. Их миссия — захватить акум (тёмных бабочек), которые превращают людей в суперзлодеев. Когда герои объединяются, каждый из них не знает истинной личности другого. Маринетт не знает, что Кот Нуар на самом деле Адриан — мальчик в которого она тайно влюблена, а Адриан, чьё сердце бьётся ради ЛедиБаг, не знает, что под маской супер-героини скрывается милая и ветреная одноклассница.--
Качество видео: WEB-DLRip
Контейнер: MKV
Стандарт разрешения: 1080p
Видео кодек: MPEG4 AVC
Аудио кодек: AC3
Видео: Н.264/AVC, 1920x1080 (16:9), ~5000 Kbps, 25 fps
Аудио: AC3, 48 kHz, 2 ch, 192 kbps - русский
Общее
Уникальный идентификатор : 155031939888345405863061998200051720085 (0x74A210C7040DB7BD937B1354C907DF95)
Полное имя : E:\Пиратка\Miraculous_Tales_of_Ladybug_and_Cat_Noir_02\S02E17.Frightningale.mkv
Формат : Matroska
Версия формата : Version 4
Размер файла : 835 Мбайт
Продолжительность : 22 м. 31 с.
Общий поток : 5184 Кбит/сек
Дата кодирования : UTC 2018-11-14 04:05:55
Программа кодирования : mkvmerge v27.0.0 ('Metropolis') 64-bit
Библиотека кодирования : libebml v1.3.6 + libmatroska v1.4.9
Видео
Идентификатор : 1
Формат : AVC
Формат/Информация : Advanced Video Codec
Профиль формата : [email protected]
Настройки формата : CABAC / 4 Ref Frames
Параметр CABAC формата : Да
Параметр RefFrames формата : 4 кадра
Идентификатор кодека : V_MPEG4/ISO/AVC
Продолжительность : 22 м. 31 с.
Битрейт : 5000 Кбит/сек
Ширина : 1920 пикселей
Высота : 1080 пикселей
Соотношение сторон : 16:9
Режим частоты кадров : Переменный
Частота кадров : 23,976 кадра/сек
Цветовое пространство : YUV
Субдискретизация насыщенности : 4:2:0
Битовая глубина : 8 бит
Тип развёртки : Прогрессивная
Бит/(Пиксели*Кадры) : 0.101
Размер потока : 804 Мбайт (96%)
Библиотека кодирования : x264 core 148 r2643 5c65704
Настройки программы : cabac=1 / ref=4 / deblock=1:0:0 / analyse=0x3:0x113 / me=umh / subme=8 / psy=1 / psy_rd=1.00:0.00 / mixed_ref=1 / me_range=24 / chroma_me=1 / trellis=1 / 8x8dct=1 / cqm=0 / deadzone=21,11 / fast_pskip=1 / chroma_qp_offset=-2 / threads=6 / lookahead_threads=1 / sliced_threads=0 / nr=0 / decimate=1 / interlaced=0 / bluray_compat=0 / constrained_intra=0 / bframes=3 / b_pyramid=0 / b_adapt=2 / b_bias=0 / direct=3 / weightb=1 / open_gop=0 / weightp=2 / keyint=250 / keyint_min=25 / scenecut=40 / intra_refresh=0 / rc_lookahead=40 / rc=abr / mbtree=1 / bitrate=5000 / ratetol=1.0 / qcomp=0.60 / qpmin=10 / qpmax=51 / qpstep=4 / ip_ratio=1.41 / aq=1:1.00
Язык : English
Default : Да
Forced : Нет
Аудио
Идентификатор : 2
Формат : AC-3
Формат/Информация : Audio Coding 3
Коммерческое название : Dolby Digital
Идентификатор кодека : A_AC3
Продолжительность : 22 м. 31 с.
Вид битрейта : Постоянный
Битрейт : 192 Кбит/сек
Каналы : 2 канала
Channel layout : L R
Частота : 48,0 КГц
Частота кадров : 31,250 кадров/сек (1536 SPF)
Битовая глубина : 16 бит
Метод сжатия : С потерями
Задержка видео : -45 мс.
Размер потока : 30,9 Мбайт (4%)
Язык : Russian
ServiceKind/String : Complete Main
Default : Да
Forced : Нет
00. Санта с когтями - Спецэпизод
01. The Collector / Собиратель
02. Prime Queen / Королева Прайм-тайма
03. Despair Bear / Гневный мишка
04. Riposte / Укол
05. Befana / Бефана
06. Robustus / Робостус
07. The Dark Owl / Темная сова
08. Gigantitan / Гигантитан
09. Glaciator / Лединатор
10. Sapotis / Сапотисы
11.Gorizilla / Горизилла
12.Captain Hardrock / Капитан Хардрок
13. Zombizou / Зомбизу
14. Syren / Сирена
15. Troublemaker / Бунтарка
16. Reverser / Обратитель
17. Frightningale / Соловей
18. Anansi / Ананси
19. Sandboy / Сеятель
20. Style Queen / Королева стиля (Битва королев Часть 1)
21. Queen Wasp / Королева Ос (Битва королев Часть 2)
22. Malediktator / Маледиктатор
23. Frozer / Мороз
24. Catalyst / Катализатор (День героев. Часть 1)
25. Mayura / Маюра (День героев. Часть 2)
Раздача ведётся путём добавления новых серий; при каждом добавлении создаётся новый торрент.
Чтобы начать докачку новой серии, пользователям необходимо сделать следующее:
1. остановить скачивание,
2. удалить старый торрент у себя из клиента (старые серии удалять не надо),
3. скачать новый торрент и запустить его у себя в клиенте вместо старого, при этом указать клиенту путь в старую папку, куда и должно происходить скачивание новых серий.
Ваш клиент при этом должен произвести хеширование (проверку) старой папки (если не производит сам - помогите ему сделать это), и будет докачивать только те серии которых у вас ещё нет. Старые серии при этом не удаляются, а продолжают раздаваться!
Eсли вы уже удалили старые серии, то предотвратить повторную закачку старых серий можно, отжав галочку в соответствующих местах при запуске нового торрента. По возможности, желательно не удалять старые серии как можно дольше, чтобы релизёр не столько продолжал раздавать старые серии, а смог сконцентрироваться на новых.
Совет для тех, кто не хочет ждать перехеширования:
Создайте ещё одну папку рядом с папкой сериала (рядом, а не в ней!!!). Каждую новую серию после удачной загрузки копируйте в новую папку так чтобы ваша основная папка всегда была пуста. Когда ваш новый торрент предложит вам закачать все файлы, выберете только последнюю. Для сидирования же укажите адрес новой папки.
Как закачать отдельный файл из торрента или докачать ранее пропущенные файлы торрента!
1. Открыть торрент
2. Снять галки с тех файлов торрента, которые мы не хотим закачивать. Оставляем только на нужных нам файлах (файле).
3. Нажать О.К.
В клиенте utorrent
Инструкция
1) Открыть торрент

2) Снять галки с тех файлов торрента, которые мы не хотим закачивать:
* либо вручную, снимая с каждого файла галку( скрин №1)
* либо, нажав кнопку "Снять метки (Select None)", сняв сразу со всех файлов(скрин №2)
№1

№2

Оставляем только на нужных нам файлах (файле).

3)Нажать О.К
Download / Скачать

Хотите скачать бесплатно? Зарегистрируйтесь на сайте (ссылка на регистрацию). Pirat.ca - самый быстрый торрент трекер в рунете!

Как скачивать  ·   Что такое торрент  ·   Рейтинг и ограничения



Последний раз редактировалось: AlexDjas (2019-04-12 12:22), всего редактировалось 2 раз(а)

AlexDjas ®

9250

Пост 09-Июн-2018 16:17 (спустя 30 дней)

[Q] 

Добавлены 11 и 12 серии. Заменены 9 и 10 серии в связи с выходом в новом дубляже (на момент выпуска серий дубляж делали другие актеры).

_________________
- Один терапевт - это 1024 гигапевта, или 1048576 мегапевтов!
[Профиль]  [ЛС] 

AlexDjas ®

9250

Пост 19-Окт-2018 13:51 (спустя 4 месяца 9 дней)

[Q] 

Добавлены 7, 13-15 серии!

_________________
- Один терапевт - это 1024 гигапевта, или 1048576 мегапевтов!
[Профиль]  [ЛС] 

vita1000

Шкипер

Пост 12-Дек-2018 20:54 (спустя 1 месяц 24 дня)

[Q] 

Нет больше серий(
[Профиль]  [ЛС] 

AlexDjas ®

9250

Пост 12-Апр-2019 12:25 (спустя 3 месяца 30 дней)

[Q] 

Добавлен весь второй сезон. Спецэпизод заменен на качество WEB-DLRip 1080p. Перекачайте торрент!

_________________
- Один терапевт - это 1024 гигапевта, или 1048576 мегапевтов!
[Профиль]  [ЛС] 
Показать сообщения:    
Ответить на тему

Текущее время: Сегодня 05:10

Часовой пояс: GMT + 4



Вы не можете начинать темы
Вы не можете отвечать на сообщения
Вы не можете редактировать свои сообщения
Вы не можете удалять свои сообщения
Вы не можете голосовать в опросах
Вы не можете прикреплять файлы к сообщениям
Вы не можете скачивать файлы

Майнать ▼