Запах женщины / Scent Of A Woman (Мартин Брест / Martin Brest) [1992 г., Драма, BDRip-AVC] AVO (Гаврилов, Володарский) + Sub (Rus)

Ответить на тему
 
Автор
Сообщение

Пост 11-Май-2018 15:39

[Q] 

anton966

Запах женщины / Scent Of A Woman«Col. Frank Slade has a very special plan for the weekend. It involves travel, women, good food, fine wine, the tango, chauffeured limousines and a loaded forty-five. And he's bringing Charlie along for the ride.»- Год выпуска: 1992
Мировая премьера: 23 декабря 1992 (США)
Производство: CША
Жанр: Драма
Продолжительность: 02:36:25
Перевод: Авторский (одноголосый): Гаврилов (Voice),Гаврилов (VHS as is), Гаврилов (VHS, clear), Володарский
Субтитры: русские
Режиссер: Мартин Брест / Martin Brest
В ролях: Аль Пачино / Al Pacino, Крис О'Доннелл / Chris O'Donnell, Джеймс Реборн / James Rebhorn, Габриэлла Анвар / Gabrielle Anwar, Ричард Вентуре / Richard Venture, Брэдли Уитфорд / Bradley Whitford, Рон Элдард / Ron Eldard, Филип Сеймор Хоффман / Philip Seymour Hoffman, Рошель Оливер / Rochelle Oliver, Маргарет Эджинтон / Margaret Eginton, Том Риис Фэррелл / Tom Riis Farrell
Описание: Аль Пачино достоин высших похвал за эту роль. Он играет слепого человека, ветерана войны, переживающего жизненный кризис, подавленного, отчаянного, пьющего и агрессивного, пытающегося перед страшным поступком - самоубийством, насладиться всем лучшим, что дарует жизнь. В День Благодарения он просит молодого, бедного студента, нанятого приглядеть за ним, отвезти его в город и снимает лучший номер в дорогом отеле. Они знакомятся с юной девушкой, и сцена, когда слепой танцует с ней танго, тронет вас до глубины души. Молодой парень постепенно проникается сочувствием к слепому и привязывается к нему. По сути он предотвращает его самоубийство, а Пачино в конце выручает его в колледже, произнося речь, которая в лишний раз подчеркивает его выдающееся актерское мастерство. Одна из самых мощных мелодрам начала 90-х годов поставлена по роману Джованни Арпино "Il Buio e il Miele.

Торрент перезалит! Новый видео ряд.
Качество видео: BDRip-AVC
Контейнер: MKV
Видео кодек: AVC/H.264
Видео: 1108x600 / 3274 kbps / 23,976 fps / 1,85:1 / High Profile 4.1
Аудио#1: 48 kHz, AC3 Dolby Digital, 3/2 (L,C,R,l,r) + LFE ch, ~448 kbps avg - Гаврилов (Voice)
Аудио#2: 48 kHz, AC3 Dolby Digital, 2/0 (L,R) ch, ~192.00 kbps avg - Гаврилов (VHS)
Аудио#3: 48 kHz, AC3 Dolby Digital, 2/0 (L,R) ch, ~192.00 kbps avg - Гаврилов (VHS, clear)
Аудио#4: 48 kHz, AC3 Dolby Digital, 2/0 (L,R) ch, ~192.00 kbps avg - Володарский
Формат : Matroska
Версия формата : Version 4 / Version 2
Размер файла : 4,70 Гбайт
Продолжительность : 2 ч. 36 м.
Общий поток : 4301 Кбит/сек
Название фильма : Scent of a Woman.1992.BDRip-AVC.3xGavrilov.Volodarsky.Subs -=anton966=-
Дата кодирования : UTC 2018-05-11 10:01:02
Программа кодирования : mkvmerge v8.3.0 ('Over the Horizon') 64bit
Библиотека кодирования : libebml v1.3.1 + libmatroska v1.4.2
Видео
Идентификатор : 1
Формат : AVC
Формат/Информация : Advanced Video Codec
Профиль формата : [email protected]
Настройки формата : CABAC / 12 Ref Frames
Параметр CABAC формата : Да
Параметр RefFrames формата : 12 кадров
Идентификатор кодека : V_MPEG4/ISO/AVC
Продолжительность : 2 ч. 36 м.
Битрейт : 3275 Кбит/сек
Ширина : 1108 пикселей
Высота : 600 пикселей
Соотношение сторон : 1,85:1
Режим частоты кадров : Постоянный
Частота кадров : 23,976 (24000/1001) кадра/сек
Цветовое пространство : YUV
Субдискретизация насыщенности : 4:2:0
Битовая глубина : 8 бит
Тип развёртки : Прогрессивная
Бит/(Пиксели*Кадры) : 0.205
Размер потока : 3,58 Гбайт (76%)
Заголовок : Scent of a Woman.1992.BDRip-AVC
Библиотека кодирования : x264 core 152 r2851kMod ba24899
Настройки программы : cabac=1 / ref=12 / deblock=1:-3:-3 / analyse=0x3:0x113 / me=umh / subme=10 / psy=1 / fade_compensate=0.00 / psy_rd=1.05:0.15 / mixed_ref=1 / me_range=32 / chroma_me=1 / trellis=2 / 8x8dct=1 / cqm=0 / deadzone=21,11 / fast_pskip=0 / chroma_qp_offset=-3 / threads=6 / lookahead_threads=1 / sliced_threads=0 / nr=0 / decimate=1 / interlaced=0 / bluray_compat=0 / constrained_intra=0 / bframes=12 / b_pyramid=2 / b_adapt=2 / b_bias=0 / direct=1 / weightb=1 / open_gop=0 / weightp=2 / keyint=250 / keyint_min=23 / scenecut=40 / intra_refresh=0 / rc_lookahead=40 / rc=crf / mbtree=0 / crf=18.8000 / qcomp=0.60 / qpmin=0 / qpmax=69 / qpstep=4 / vbv_maxrate=40000 / vbv_bufsize=62500 / crf_max=0.0 / nal_hrd=none / filler=0 / ip_ratio=1.40 / pb_ratio=1.25 / aq=3:0.80
Язык : English
Default : Да
Forced : Нет
Цветовой диапазон : Limited
Основные цвета : BT.709
Характеристики трансфера : BT.709
Коэффициенты матрицы : BT.709
Аудио #1
Идентификатор : 2
Формат : AC-3
Формат/Информация : Audio Coding 3
Идентификатор кодека : A_AC3
Продолжительность : 2 ч. 36 м.
Вид битрейта : Постоянный
Битрейт : 448 Кбит/сек
Каналы : 6 каналов
Расположение каналов : Front: L C R, Side: L R, LFE
Частота : 48,0 КГц
Частота кадров : 31,250 кадров/сек (1536 SPF)
Битовая глубина : 16 бит
Метод сжатия : С потерями
Размер потока : 501 Мбайт (10%)
Заголовок : Gavrilov (Voice)
Язык : Russian
ServiceKind/String : Complete Main
Default : Да
Forced : Нет
Аудио #2
Идентификатор : 3
Формат : AC-3
Формат/Информация : Audio Coding 3
Идентификатор кодека : A_AC3
Продолжительность : 2 ч. 36 м.
Вид битрейта : Постоянный
Битрейт : 192 Кбит/сек
Каналы : 2 канала
Расположение каналов : Front: L R
Частота : 48,0 КГц
Частота кадров : 31,250 кадров/сек (1536 SPF)
Битовая глубина : 16 бит
Метод сжатия : С потерями
Размер потока : 215 Мбайт (4%)
Заголовок : Gavrilov (VHS)
Язык : Russian
ServiceKind/String : Complete Main
Default : Нет
Forced : Нет
Аудио #3
Идентификатор : 4
Формат : AC-3
Формат/Информация : Audio Coding 3
Идентификатор кодека : A_AC3
Продолжительность : 2 ч. 36 м.
Вид битрейта : Постоянный
Битрейт : 192 Кбит/сек
Каналы : 2 канала
Расположение каналов : Front: L R
Частота : 48,0 КГц
Частота кадров : 31,250 кадров/сек (1536 SPF)
Битовая глубина : 16 бит
Метод сжатия : С потерями
Размер потока : 215 Мбайт (4%)
Заголовок : Gavrilov (VHS, clear)
Язык : Russian
ServiceKind/String : Complete Main
Default : Нет
Forced : Нет
Аудио #4
Идентификатор : 5
Формат : AC-3
Формат/Информация : Audio Coding 3
Идентификатор кодека : A_AC3
Продолжительность : 2 ч. 36 м.
Вид битрейта : Постоянный
Битрейт : 192 Кбит/сек
Каналы : 2 канала
Расположение каналов : Front: L R
Частота : 48,0 КГц
Частота кадров : 31,250 кадров/сек (1536 SPF)
Битовая глубина : 16 бит
Метод сжатия : С потерями
Размер потока : 215 Мбайт (4%)
Заголовок : Volodarsky
Язык : Russian
ServiceKind/String : Complete Main
Default : Нет
Forced : Нет
Текст
Идентификатор : 6
Формат : UTF-8
Идентификатор кодека : S_TEXT/UTF8
Идентификатор кодека/Информация : UTF-8 Plain Text
Продолжительность : 2 ч. 29 м.
Битрейт : 100 бит/сек
ElementCount : 2025
Размер потока : 110 Кбайт (0%)
Язык : Russian
Default : Нет
Forced : Нет
Меню
00:00:00.000 : en:The Baird Preparatory School
00:06:22.924 : en:The Job Interview
00:20:06.413 : en:A Prep School Prank
00:24:24.880 : en:One Special Student
00:35:01.641 : en:I'm Giving You Pearls Here
00:39:09.138 : en:The Waldorf Astoria
00:57:42.959 : en:Thanksgiving Dinner
01:08:41.367 : en:A.45 in .25
01:19:31.015 : en:Tango Lessons
01:40:29.523 : en:The Ferrari
01:52:33.329 : en:Back Too Fast
02:12:00.620 : en:An Open Meeting
02:19:49.047 : en:The Colonel Speaks Out
02:26:15.725 : en:The Disciplinary Committee's Decision
02:30:16.674 : en:The End of a Really Hard Weekend
02:33:21.984 : en:End Titles
avs [info]: 1108x600p 1:1 @ 24000/1001 fps (cfr)
x264 [info]: using SAR=1/1
x264 [info]: using cpu capabilities: MMX2 SSE2Fast SSSE3 SSE4.2 AVX XOP FMA3 BMI1
x264 [info]: profile High, level 4.1
x264 [info]: cabac=1 ref=12 deblock=1:-3:-3 analyse=0x3:0x113 me=umh subme=10 psy=1 fade_compensate=0.00 psy_rd=1.05:0.15 mixed_ref=1 me_range=32 chroma_me=1 trellis=2 8x8dct=1 cqm=0 deadzone=21,11 fast_pskip=0 chroma_qp_offset=-3 threads=6 lookahead_threads=1 sliced_threads=0 nr=0 decimate=1 interlaced=0 bluray_compat=0 constrained_intra=0 bframes=12 b_pyramid=2 b_adapt=2 b_bias=0 direct=1 weightb=1 open_gop=0 weightp=2 keyint=250 keyint_min=23 scenecut=40 intra_refresh=0 rc_lookahead=40 rc=crf mbtree=0 crf=18.8000 qcomp=0.60 qpmin=0 qpmax=69 qpstep=4 vbv_maxrate=40000 vbv_bufsize=62500 crf_max=0.0 nal_hrd=none filler=0 ip_ratio=1.40 pb_ratio=1.25 aq=3:0.80
x264 [info]: frame I:1736 Avg QP:17.73 size: 91985
x264 [info]: frame P:43151 Avg QP:19.36 size: 36245
x264 [info]: frame B:180111 Avg QP:21.23 size: 11757
x264 [info]: consecutive B-frames: 1.2% 0.6% 2.7% 12.3% 25.6% 50.2% 4.5% 1.4% 0.4% 0.4% 0.2% 0.4% 0.1%
x264 [info]: mb I I16..4: 4.0% 83.0% 13.0%
x264 [info]: mb P I16..4: 0.2% 10.6% 1.0% P16..4: 38.5% 31.4% 17.1% 0.0% 0.0% skip: 1.2%
x264 [info]: mb B I16..4: 0.0% 0.8% 0.1% B16..8: 42.7% 11.0% 2.9% direct: 7.3% skip:35.3% L0:42.7% L1:41.7% BI:15.6%
x264 [info]: 8x8 transform intra:87.8% inter:55.5%
x264 [info]: coded y,uvDC,uvAC intra: 96.4% 85.6% 59.7% inter: 30.9% 20.2% 1.6%
x264 [info]: i16 v,h,dc,p: 43% 8% 14% 35%
x264 [info]: i8 v,h,dc,ddl,ddr,vr,hd,vl,hu: 16% 9% 9% 9% 12% 12% 10% 11% 11%
x264 [info]: i4 v,h,dc,ddl,ddr,vr,hd,vl,hu: 19% 15% 3% 7% 12% 14% 11% 10% 9%
x264 [info]: i8c dc,h,v,p: 37% 24% 23% 16%
x264 [info]: Weighted P-Frames: Y:5.2% UV:1.8%
x264 [info]: ref P L0: 36.5% 10.8% 19.0% 6.6% 7.1% 4.4% 4.9% 2.3% 2.6% 1.9% 2.2% 1.7% 0.1% 0.0%
x264 [info]: ref B L0: 76.6% 9.0% 4.4% 2.6% 1.9% 1.7% 1.3% 0.9% 0.7% 0.6% 0.3%
x264 [info]: ref B L1: 96.7% 3.3%
x264 [info]: kb/s:3274.57
Download / Скачать

Хотите скачать бесплатно? Зарегистрируйтесь на сайте (ссылка на регистрацию). Pirat.ca - самый быстрый торрент трекер в рунете!

Как скачивать  ·   Что такое торрент  ·   Рейтинг и ограничения



Последний раз редактировалось: anton966 (2018-05-20 01:30), всего редактировалось 2 раз(а)

anton966 ®

10747

Пост 11-Май-2018 15:40 (спустя 43 секунды)

[Q] 

Голос Гаврилова на ремуксе наложен, мягко скажу, не по фэн-шуй. Поэтому возникло дикое желание "приклеить" дорожку с VHS, что и сделал. Два варианта, как есть (as is) и почищенный в Изотопе.

_________________
" ...потому что во многой мудрости много печали; и кто умножает познания, умножает скорбь" ( Еккл 1:17,18)
[Профиль]  [ЛС] 

Mustafa Sazont

Корсар

Пост 11-Май-2018 20:15 (спустя 4 часа)

[Q] 

Фильм-шедевр, который можно смотреть множество раз!
[Профиль]  [ЛС] 

volf

Корсар

Пост 19-Май-2018 21:58 (спустя 8 дней)

[Q] 

anton966, Спасибо за классику ! Мне понравилось

_________________
[Профиль]  [ЛС] 
Показать сообщения:    
Ответить на тему

Текущее время: Сегодня 20:57

Часовой пояс: GMT + 4



Вы не можете начинать темы
Вы не можете отвечать на сообщения
Вы не можете редактировать свои сообщения
Вы не можете удалять свои сообщения
Вы не можете голосовать в опросах
Вы не можете прикреплять файлы к сообщениям
Вы не можете скачивать файлы

Майнать ▼