Линкольн для адвоката / The Lincoln Lawyer (Брэд Фурман / Brad Furman) [2011 г., триллер, драма, криминал, BDRip-AVC] [USA Transfer] AVO (Гаврилов) + Subs (Rus)

Ответить на тему
 
Автор
Сообщение

Пост 12-Май-2018 05:12

[Q] 

anton966

Линкольн для адвоката / The Lincoln Lawyer- Год выпуска: 2011
Производство: США
Жанр: триллер, драма, криминал
Продолжительность: 01:58:28
Перевод: Авторский (одноголосый) Андрей Гаврилов
Субтитры: русские
Режиссер: Брэд Фурман / Brad Furman
В ролях: Мэттью МакКонахи, Мариса Томей, Райан Филипп, Уильям Х. Мэйси, Джош Лукас, Джон Легуизамо, Майкл Пенья, Боб Гантон, Фрэнсис Фишер, Брайан Крэнстон
Описание: Адвокат Микки Хэллер, который практически живет в своем «Линкольне» и все бумаги держит на заднем сидении автомобиля, большую часть карьеры занимался тем, что защищал мелких сошек, но вот ему подвернулось дело всей жизни: его нанимает известный плэйбой из Беверли-Хиллз, которого обвиняют в убийстве. Неожиданный шанс оборачивается для Хэллера игрой на выживание.

Качество видео: BDRip-AVC
Контейнер: MKV
Видео кодек: AVC/x.264
Видео: 1220x520 / 2736 kbps / 23,976 fps / 2,35:1 / High Profile 4.1
Аудио#1: 48 kHz, AC3 Dolby Digital, 3/2 (L,C,R,l,r) + LFE ch, ~448 kbps avg - Гаврилов
За перевод у А.Гаврилова премного благодарен исключительно , т.к. средства собраны исключительно на пиратке:
KSs
dunhill200
lexal2002
Chistobaev
Джосс
Pain_70
bond-street
pestel
audiolubitel
Fess Necromant
alent1204
Nort1989
ОлегКиев
edsz
therox
Формат : Matroska
Версия формата : Version 4 / Version 2
Размер файла : 2,64 Гбайт
Продолжительность : 1 ч. 58 м.
Общий поток : 3186 Кбит/сек
Название фильма : The Lincoln Lawyer.2011.BDRip-AVC.US.Gavrilov.Subs -=anton966=-
Дата кодирования : UTC 2018-05-11 23:08:08
Программа кодирования : mkvmerge v8.3.0 ('Over the Horizon') 64bit
Библиотека кодирования : libebml v1.3.1 + libmatroska v1.4.2
Видео
Идентификатор : 1
Формат : AVC
Формат/Информация : Advanced Video Codec
Профиль формата : [email protected]
Настройки формата : CABAC / 12 Ref Frames
Параметр CABAC формата : Да
Параметр RefFrames формата : 12 кадров
Идентификатор кодека : V_MPEG4/ISO/AVC
Продолжительность : 1 ч. 58 м.
Битрейт : 2736 Кбит/сек
Ширина : 1220 пикселей
Высота : 520 пикселей
Соотношение сторон : 2,35:1
Режим частоты кадров : Постоянный
Частота кадров : 23,976 (24000/1001) кадра/сек
Цветовое пространство : YUV
Субдискретизация насыщенности : 4:2:0
Битовая глубина : 8 бит
Тип развёртки : Прогрессивная
Бит/(Пиксели*Кадры) : 0.180
Размер потока : 2,26 Гбайт (86%)
Заголовок : The Lincoln Lawyer.2011.BDRip-AVC
Библиотека кодирования : x264 core 152 r2851kMod ba24899
Настройки программы : cabac=1 / ref=12 / deblock=1:-3:-3 / analyse=0x3:0x113 / me=umh / subme=10 / psy=1 / fade_compensate=0.00 / psy_rd=1.05:0.20 / mixed_ref=1 / me_range=32 / chroma_me=1 / trellis=2 / 8x8dct=1 / cqm=0 / deadzone=21,11 / fast_pskip=0 / chroma_qp_offset=-3 / threads=6 / lookahead_threads=1 / sliced_threads=0 / nr=0 / decimate=1 / interlaced=0 / bluray_compat=0 / constrained_intra=0 / bframes=3 / b_pyramid=2 / b_adapt=2 / b_bias=0 / direct=1 / weightb=1 / open_gop=0 / weightp=2 / keyint=250 / keyint_min=23 / scenecut=40 / intra_refresh=0 / rc_lookahead=40 / rc=crf / mbtree=0 / crf=18.6000 / qcomp=0.60 / qpmin=0 / qpmax=69 / qpstep=4 / vbv_maxrate=40000 / vbv_bufsize=62500 / crf_max=0.0 / nal_hrd=none / filler=0 / ip_ratio=1.40 / pb_ratio=1.23 / aq=3:0.80
Язык : English
Default : Да
Forced : Нет
Цветовой диапазон : Limited
Основные цвета : BT.709
Характеристики трансфера : BT.709
Коэффициенты матрицы : BT.709
Аудио
Идентификатор : 2
Формат : AC-3
Формат/Информация : Audio Coding 3
Идентификатор кодека : A_AC3
Продолжительность : 1 ч. 58 м.
Вид битрейта : Постоянный
Битрейт : 448 Кбит/сек
Каналы : 6 каналов
Расположение каналов : Front: L C R, Side: L R, LFE
Частота : 48,0 КГц
Частота кадров : 31,250 кадров/сек (1536 SPF)
Битовая глубина : 16 бит
Метод сжатия : С потерями
Размер потока : 380 Мбайт (14%)
Заголовок : Gavrilov
Язык : Russian
ServiceKind/String : Complete Main
Default : Да
Forced : Нет
Текст
Идентификатор : 3
Формат : UTF-8
Идентификатор кодека : S_TEXT/UTF8
Идентификатор кодека/Информация : UTF-8 Plain Text
Продолжительность : 1 ч. 50 м.
Битрейт : 131 бит/сек
ElementCount : 1956
Размер потока : 106 Кбайт (0%)
Язык : Russian
Default : Нет
Forced : Нет
Меню
00:00:00.000 : en:1. Something Big
00:05:07.015 : en:2. Get Paid
00:16:50.050 : en:3. Something New
00:20:06.205 : en:4. What Happened?
00:30:21.986 : en:5. Security Camera
00:38:23.342 : en:6. Catching Up
00:48:25.152 : en:7. Make It Right
00:55:07.220 : en:8. Dangerous Place
00:59:10.255 : en:9. Predator
01:03:16.626 : en:10. Break In The Case
01:09:03.931 : en:11. Defense Theory
01:15:28.857 : en:12. Witness Testimony
01:23:21.454 : en:13. Taking The Stand
01:29:44.045 : en:14. Snitch
01:37:34.139 : en:15. New Lawyer
01:50:00.343 : en:16. Repeat Customers
avs [info]: 1220x520p 1:1 @ 24000/1001 fps (cfr)
x264 [info]: using SAR=1/1
x264 [info]: using cpu capabilities: MMX2 SSE2Fast SSSE3 SSE4.2 AVX XOP FMA3 BMI1
x264 [info]: profile High, level 4.1
x264 [info]: cabac=1 ref=12 deblock=1:-3:-3 analyse=0x3:0x113 me=umh subme=10 psy=1 fade_compensate=0.00 psy_rd=1.05:0.20 mixed_ref=1 me_range=32 chroma_me=1 trellis=2 8x8dct=1 cqm=0 deadzone=21,11 fast_pskip=0 chroma_qp_offset=-3 threads=6 lookahead_threads=1 sliced_threads=0 nr=0 decimate=1 interlaced=0 bluray_compat=0 constrained_intra=0 bframes=3 b_pyramid=2 b_adapt=2 b_bias=0 direct=1 weightb=1 open_gop=0 weightp=2 keyint=250 keyint_min=23 scenecut=40 intra_refresh=0 rc_lookahead=40 rc=crf mbtree=0 crf=18.6000 qcomp=0.60 qpmin=0 qpmax=69 qpstep=4 vbv_maxrate=40000 vbv_bufsize=62500 crf_max=0.0 nal_hrd=none filler=0 ip_ratio=1.40 pb_ratio=1.23 aq=3:0.80
x264 [info]: frame I:1447 Avg QP:15.29 size: 74617
x264 [info]: frame P:49421 Avg QP:17.56 size: 25388
x264 [info]: frame B:119575 Avg QP:19.71 size: 8938
x264 [info]: consecutive B-frames: 2.4% 4.1% 23.9% 69.5%
x264 [info]: mb I I16..4: 15.0% 67.0% 18.0%
x264 [info]: mb P I16..4: 1.4% 11.0% 1.7% P16..4: 38.3% 26.6% 12.8% 0.0% 0.0% skip: 8.2%
x264 [info]: mb B I16..4: 0.1% 0.7% 0.2% B16..8: 44.4% 12.7% 2.7% direct: 4.9% skip:34.3% L0:43.9% L1:43.4% BI:12.7%
x264 [info]: 8x8 transform intra:75.3% inter:57.4%
x264 [info]: coded y,uvDC,uvAC intra: 83.1% 75.1% 51.7% inter: 23.6% 14.6% 1.9%
x264 [info]: i16 v,h,dc,p: 26% 22% 12% 40%
x264 [info]: i8 v,h,dc,ddl,ddr,vr,hd,vl,hu: 13% 13% 12% 8% 11% 11% 11% 11% 11%
x264 [info]: i4 v,h,dc,ddl,ddr,vr,hd,vl,hu: 13% 24% 5% 7% 12% 11% 11% 8% 9%
x264 [info]: i8c dc,h,v,p: 39% 25% 20% 15%
x264 [info]: Weighted P-Frames: Y:2.5% UV:0.9%
x264 [info]: ref P L0: 45.9% 10.7% 17.0% 6.2% 5.4% 3.6% 3.5% 1.8% 1.8% 1.4% 1.5% 1.2% 0.0% 0.0%
x264 [info]: ref B L0: 71.6% 11.7% 5.7% 3.3% 2.0% 1.8% 1.4% 0.9% 0.7% 0.6% 0.3%
x264 [info]: ref B L1: 95.1% 4.9%
x264 [info]: kb/s:2736.17
Download / Скачать

Хотите скачать бесплатно? Зарегистрируйтесь на сайте (ссылка на регистрацию). Pirat.ca - самый быстрый торрент трекер в рунете!

Как скачивать  ·   Что такое торрент  ·   Рейтинг и ограничения

Mustafa Sazont

Корсар

Пост 14-Май-2018 11:06 (спустя 2 дня 5 часов)

[Q] 

Красивый, качественный фильм! Хочется пересматривать. МакКонахи сыграл великолепно.
[Профиль]  [ЛС] 
Показать сообщения:    
Ответить на тему

Текущее время: Сегодня 20:57

Часовой пояс: GMT + 4



Вы не можете начинать темы
Вы не можете отвечать на сообщения
Вы не можете редактировать свои сообщения
Вы не можете удалять свои сообщения
Вы не можете голосовать в опросах
Вы не можете прикреплять файлы к сообщениям
Вы не можете скачивать файлы

Майнать ▼