Первому игроку приготовиться / Ready Player One (Стивен Спилберг/Steven Spielberg) [2018 г., Фантастика, Боевик, Триллер, Приключения, WEBRip, 720p] MVO

Ответить на тему
 
Автор
Сообщение

Пост 12-Май-2018 12:02

[Q] 

AlexDjas

Флибустьер

--Первому игроку приготовиться / Ready Player One --«Загрузи новую реальность»-- Производство: США, Amblin Entertainment, De Line Pictures, Farah Films & Management, Reliance Entertainment, Village Roadshow Pictures, Warner Bros. Pictures
Год выпуска: 2018 г.
Жанр: Фантастика, Боевик, Триллер, Приключения
Продолжительность: 02:19:44
Мировая премьера: 11 марта 2018
Российская премьера: 29 марта 2018, «Каро-Премьер»
Перевод: Любительский (многоголосый, закадровый) [MUZOBOZ]
Режиссёр: Стивен Спилберг/Steven Spielberg--В ролях: Оливия Кук, Ханна Джон-Кэймен, Бен Мендельсон, ТиДжей Миллер, Саймон Пегг, Тай Шеридан, Джулия Никсон-Соул, Марк Райлэнс, Летишиа Райт--Описание: Действие фильма происходит в 2045 году, мир погружается в хаос и находится на грани коллапса. Люди ищут спасения в игре OASIS — огромной вселенной виртуальной реальности. Ее создатель, гениальный и эксцентричный Джеймс Холлидэй, оставляет уникальное завещание. Все его колоссальное состояние получит игрок, первым обнаруживший цифровое «пасхальное яйцо», которое миллиардер спрятал где-то на просторах OASISа. Запущенный им квест охватывает весь мир. Совершенно негероический парень по имени Уэйд Уоттс решает принять участие в состязании, с головой бросаясь в головокружительную, искажающую реальность погоню за сокровищами по фантастической вселенной, полной загадок, открытий и опасностей.-- Качество видео: WEBRip
Контейнер: MKV
Стандарт разрешения: 720p
Видео кодек: MPEG4 AVC
Аудио кодек: AC3
Видео: H.264/AVC, 1280x534 (2.35:1), 4947 kbps, 23.976 fps
Аудио: 48 kHz, AC3 Dolby Digital, 2/0 (L,R) ch, ~384 kbps
Cубтитры: Корейские(неотключаемые, вшитые)
Общее
Уникальный идентификатор : 175149227989602203667861917620110200098 (0x83C483A8A6750CFFBB16F91090BD8D22)
Полное имя : G:\Фильмы\Ready_Player_One_2018_WEBRip_[720p][pirat.ca].mkv
Формат : Matroska
Версия формата : Version 4 / Version 2
Размер файла : 5,21 Гбайт
Продолжительность : 2 ч. 19 м.
Режим общего битрейта : Переменный
Общий поток : 5333 Кбит/сек
Дата кодирования : UTC 2018-05-12 05:19:50
Программа кодирования : mkvmerge v8.3.0 ('Over the Horizon') 64bit
Библиотека кодирования : libebml v1.3.1 + libmatroska v1.4.2
Видео
Идентификатор : 1
Формат : AVC
Формат/Информация : Advanced Video Codec
Профиль формата : [email protected]
Настройки формата : CABAC / 4 Ref Frames
Параметр CABAC формата : Да
Параметр RefFrames формата : 4 кадра
Идентификатор кодека : V_MPEG4/ISO/AVC
Продолжительность : 2 ч. 19 м.
Вид битрейта : Переменный
Битрейт : 4947 Кбит/сек
Максимальный битрейт : 5500 Кбит/сек
Ширина : 1280 пикселей
Высота : 534 пикселя
Соотношение сторон : 2,40:1
Режим частоты кадров : Постоянный
Частота кадров : 23,976 (24000/1001) кадра/сек
Стандарт вещания : Component
Цветовое пространство : YUV
Субдискретизация насыщенности : 4:2:0
Битовая глубина : 8 бит
Тип развёртки : Прогрессивная
Бит/(Пиксели*Кадры) : 0.302
Размер потока : 4,83 Гбайт (93%)
Язык : English
Default : Да
Forced : Нет
Цветовой диапазон : Limited
Основные цвета : BT.709
Характеристики трансфера : BT.709
Коэффициенты матрицы : BT.709
Аудио
Идентификатор : 2
Формат : AC-3
Формат/Информация : Audio Coding 3
Идентификатор кодека : A_AC3
Продолжительность : 2 ч. 19 м.
Вид битрейта : Постоянный
Битрейт : 384 Кбит/сек
Каналы : 2 канала
Расположение каналов : Front: L R
Частота : 48,0 КГц
Частота кадров : 31,250 кадров/сек (1536 SPF)
Битовая глубина : 16 бит
Метод сжатия : С потерями
Размер потока : 384 Мбайт (7%)
Язык : Russian
ServiceKind/String : Complete Main
Default : Да
Forced : Нет
--Внимание! Присутствует реклама!--
Download / Скачать

Хотите скачать бесплатно? Зарегистрируйтесь на сайте (ссылка на регистрацию). Pirat.ca - самый быстрый торрент трекер в рунете!

Как скачивать  ·   Что такое торрент  ·   Рейтинг и ограничения

tank69

Корсар

713

Пост 12-Май-2018 12:17 (спустя 14 минут)

[Q] 

Бомба а не фильм!
Качество - почти норм.
Автору раздачи - респект!
Спасибо!!!
[Профиль]  [ЛС] 

baradavochnik

Лоцман

Пост 13-Май-2018 09:28 (спустя 21 час)

[Q] 

Спасибо!Оперативно)
[Профиль]  [ЛС] 

Кристина119

Гроза морей

Пост 13-Май-2018 15:20 (спустя 5 часов)

[Q] 

Подождемс чуток...
[Профиль]  [ЛС] 

Sector_X

311

Пост 13-Май-2018 20:27 (спустя 5 часов)

[Q] 

Спасибо!!! Мне понравилось

_________________

[Профиль]  [ЛС] 

zvernight

Гроза морей

Пост 14-Май-2018 05:04 (спустя 8 часов)

[Q] 

Пиратка рулит! Автору респект!!!
[Профиль]  [ЛС] 

fishman

Флибустьер

Пост 16-Май-2018 00:43 (спустя 1 день 19 часов)

[Q] 

Спасибо!!! rum

_________________
|___|___|___|___|___|___|___|__|__
__|__|__|_Биться головой_|___|___|
|___|___|___|__сюда!!___|___|__|__
__|___|___|___|___|___|___|__|__
[Профиль]  [ЛС] 

Recon105

Штурман

Пост 17-Май-2018 20:53 (спустя 1 день 20 часов)

[Q] 

Вопрос к модератору - на сколько нужно быть ....... (оскорбление)
Kgross1978 писал(а):

За оскорбление модератора запрет на написание комментариев на месяц

_________________
Обиваю двери кожей заказчика...
[Профиль]  [ЛС] 

Towelie

Корсар

13

Пост 18-Май-2018 19:46 (спустя 22 часа)

[Q] 

Спасибо, но будем ждать качество.
[Профиль]  [ЛС] 

AirPower

Корсар

Пост 18-Май-2018 21:03 (спустя 1 час 17 минут)

[Q] 

Не знаю, фильм какой-то уж совсем детский, прям совсем.
[Профиль]  [ЛС] 
Показать сообщения:    
Ответить на тему

Текущее время: Сегодня 20:57

Часовой пояс: GMT + 4



Вы не можете начинать темы
Вы не можете отвечать на сообщения
Вы не можете редактировать свои сообщения
Вы не можете удалять свои сообщения
Вы не можете голосовать в опросах
Вы не можете прикреплять файлы к сообщениям
Вы не можете скачивать файлы

Майнать ▼