Вердикт за деньги / Сбежавший присяжный / Runaway Jury (Гари Фледер / Gary Fleder) [2003, США, Триллер, драма, WEBRip-AVC (Open Matte)] AVO (Живов, Визгунов) + Subs (Rus)

Ответить на тему
 
Автор
Сообщение

Пост 14-Май-2018 06:26

[Q] 

anton966

Вердикт за деньги / Runaway Jury
«Правда. Молчание. Убийство. За деньги можно всё»
- Год выпуска: 2003
Страна: США
Жанр: триллер, драма
Продолжительность: 02:07:40
Перевод: Авторский (одноголосый) Живов, Визгунов
Русские субтитры: Есть
Режиссер: Гэри Флидер / Gary Fleder
В ролях: Джон Кьюсак (Nicholas Easter), Джин Хэкмен (Rankin Fitch), Дастин Хоффман (Wendell Rohr), Рейчел Вайс (Marlee), Брюс Дэвисон (Durwood Cable), Брюс МакГилл (Judge Harkin), Джереми Пивен (Lawrence Green), Ник Сирси (Doyle), Стенли Андерсон (Henry Jankle), Клифф Кёртис (Frank Herrera), Нестор Серрано (Janovich), Лиленд Орсер (Lamb)
Описание: Производящий неизгладимое впечатление триллер по роману великого гуру детективов Джона Гришема ("Фирма", "Клиент") с потрясающими актерами, обладателями премий "Оскар" Дастином Хоффманом ("Человек дождя") и Джином Хэкменом ("Враг государства"), а также с Джоном Кьюсаком ("Идентификация", "Тонкая красная линия") и Рэчел Вейсц ("Мумия", "Афера").
Кто сказал, что суд присяжных самый справедливый и независимый? Может, обычно так и есть, но не в этот раз. Присяжные становятся податливыми марионетками, если за дело берется профессионал. Но если кукловодов два? И они раздирают присяжных в разные стороны? Два великих интеллекта схватились друг с другом за решение суда. Один, проникнув в число присяжных и действуя изнутри изощренными психологическими методами, начинает контролировать их мысли и поступки. Другой, действуя снаружи и обладая уникальными дедуктивными способностями и огромными деньгами, заставляет шантажом и подкупами повиноваться присяжных ему. Ставки очень высоки, на карту поставлено существование могущественных оружейных компаний, в ход идут все средства, но исход дела неизвестен...


Качество видео: WEBRip-AVC / WEB-DL 1080p
Контейнер: MKV
Видео кодек: MPEG-4 AVC / x.264
Видео: 1116x628 / 2891 kbps / 23,976 fps / 16:9 / High Profile 4.1
Аудио #1: 48 kHz, AC3 Dolby Digital, 3/2 (L,C,R,l,r) + LFE ch, ~448 kbps avg - Живов
Аудио #2: 48 kHz, AC3 Dolby Digital, 2/0 (L,R) ch, ~192 kbps - Визгунов
Формат : Matroska
Версия формата : Version 4 / Version 2
Размер файла : 3,15 Гбайт
Продолжительность : 2 ч. 7 м.
Общий поток : 3533 Кбит/сек
Название фильма : Runaway Jury.2003.WEBRip-AVC.Zhivov.Vizgunov.Subs -=anton966=-
Дата кодирования : UTC 2018-05-14 01:16:42
Программа кодирования : mkvmerge v8.3.0 ('Over the Horizon') 64bit
Библиотека кодирования : libebml v1.3.1 + libmatroska v1.4.2
Видео
Идентификатор : 1
Формат : AVC
Формат/Информация : Advanced Video Codec
Профиль формата : [email protected]
Настройки формата : CABAC / 11 Ref Frames
Параметр CABAC формата : Да
Параметр RefFrames формата : 11 кадров
Идентификатор кодека : V_MPEG4/ISO/AVC
Продолжительность : 2 ч. 7 м.
Битрейт : 2891 Кбит/сек
Ширина : 1116 пикселей
Высота : 628 пикселей
Соотношение сторон : 16:9
Соотношение сторон в оригинале : 16:9
Режим частоты кадров : Постоянный
Частота кадров : 23,976 (24000/1001) кадра/сек
Цветовое пространство : YUV
Субдискретизация насыщенности : 4:2:0
Битовая глубина : 8 бит
Тип развёртки : Прогрессивная
Бит/(Пиксели*Кадры) : 0.172
Размер потока : 2,58 Гбайт (82%)
Заголовок : Runaway Jury.2003.WEBRip-AVC
Библиотека кодирования : x264 core 152 r2851kMod ba24899
Настройки программы : cabac=1 / ref=11 / deblock=1:-3:-3 / analyse=0x3:0x113 / me=umh / subme=10 / psy=1 / fade_compensate=0.00 / psy_rd=1.05:0.15 / mixed_ref=1 / me_range=32 / chroma_me=1 / trellis=2 / 8x8dct=1 / cqm=0 / deadzone=21,11 / fast_pskip=0 / chroma_qp_offset=-3 / threads=6 / lookahead_threads=1 / sliced_threads=0 / nr=0 / decimate=1 / interlaced=0 / bluray_compat=0 / constrained_intra=0 / bframes=8 / b_pyramid=2 / b_adapt=2 / b_bias=0 / direct=1 / weightb=1 / open_gop=0 / weightp=2 / keyint=250 / keyint_min=23 / scenecut=40 / intra_refresh=0 / rc_lookahead=40 / rc=crf / mbtree=0 / crf=19.3000 / qcomp=0.60 / qpmin=0 / qpmax=69 / qpstep=4 / vbv_maxrate=40000 / vbv_bufsize=62500 / crf_max=0.0 / nal_hrd=none / filler=0 / ip_ratio=1.40 / pb_ratio=1.24 / aq=3:0.80
Язык : English
Default : Да
Forced : Нет
Цветовой диапазон : Limited
Основные цвета : BT.709
Характеристики трансфера : BT.709
Коэффициенты матрицы : BT.709
Аудио #1
Идентификатор : 2
Формат : AC-3
Формат/Информация : Audio Coding 3
Идентификатор кодека : A_AC3
Продолжительность : 2 ч. 7 м.
Вид битрейта : Постоянный
Битрейт : 448 Кбит/сек
Каналы : 6 каналов
Расположение каналов : Front: L C R, Side: L R, LFE
Частота : 48,0 КГц
Частота кадров : 31,250 кадров/сек (1536 SPF)
Битовая глубина : 16 бит
Метод сжатия : С потерями
Размер потока : 409 Мбайт (13%)
Заголовок : Zhivov
Язык : Russian
ServiceKind/String : Complete Main
Default : Да
Forced : Нет
Аудио #2
Идентификатор : 3
Формат : AC-3
Формат/Информация : Audio Coding 3
Идентификатор кодека : A_AC3
Продолжительность : 2 ч. 7 м.
Вид битрейта : Постоянный
Битрейт : 192 Кбит/сек
Каналы : 2 канала
Расположение каналов : Front: L R
Частота : 48,0 КГц
Частота кадров : 31,250 кадров/сек (1536 SPF)
Битовая глубина : 16 бит
Метод сжатия : С потерями
Размер потока : 175 Мбайт (5%)
Заголовок : Vizgunov
Язык : Russian
ServiceKind/String : Complete Main
Default : Нет
Forced : Нет
Текст
Идентификатор : 4
Формат : UTF-8
Идентификатор кодека : S_TEXT/UTF8
Идентификатор кодека/Информация : UTF-8 Plain Text
Продолжительность : 2 ч. 1 м.
Битрейт : 143 бит/сек
ElementCount : 1888
Размер потока : 128 Кбайт (0%)
Язык : Russian
Default : Нет
Forced : Нет
Меню
00:00:07.264 : en:Main Titles
00:03:28.756 : en:The Shooting
00:09:09.180 : en:A Jury Consultant
00:11:25.816 : en:Rankin Fitch
00:13:54.048 : en:Jury Duty
00:18:13.974 : en:Jury Selection
00:24:58.128 : en:The Gun Lobby
00:29:03.123 : en:Juror Number 9
00:37:11.277 : en:Electing a Foreman
00:39:24.618 : en:A Case History
00:46:48.020 : en:Working Late
00:49:15.334 : en:Nick's Influence
00:54:17.677 : en:Gathering Information
00:59:21.523 : en:A New Juror
01:05:47.241 : en:Another Break-In
01:15:59.228 : en:Meeting Marlee
01:19:35.235 : en:The Sequestered Jury
01:25:20.663 : en:A Missing Witness
01:31:07.051 : en:Nick's History
01:32:24.212 : en:Guns and Lawyers
01:36:10.104 : en:Meeting with Fitch
01:43:18.574 : en:Closing Statements
01:46:55.999 : en:Jury Deliberations
01:50:54.446 : en:Childhood Memories
01:55:30.972 : en:Fitch's Connection
01:56:26.945 : en:The Jury's Decision
01:59:10.608 : en:Facing the Past
02:03:10.473 : en:End Titles
02:07:40.326 : en:Main Titles
avs [info]: 1116x628p 1:1 @ 24000/1001 fps (cfr)
x264 [info]: using SAR=1/1
x264 [info]: using cpu capabilities: MMX2 SSE2Fast SSSE3 SSE4.2 AVX XOP FMA3 BMI1
x264 [info]: profile High, level 4.1
x264 [info]: cabac=1 ref=11 deblock=1:-3:-3 analyse=0x3:0x113 me=umh subme=10 psy=1 fade_compensate=0.00 psy_rd=1.05:0.15 mixed_ref=1 me_range=32 chroma_me=1 trellis=2 8x8dct=1 cqm=0 deadzone=21,11 fast_pskip=0 chroma_qp_offset=-3 threads=6 lookahead_threads=1 sliced_threads=0 nr=0 decimate=1 interlaced=0 bluray_compat=0 constrained_intra=0 bframes=8 b_pyramid=2 b_adapt=2 b_bias=0 direct=1 weightb=1 open_gop=0 weightp=2 keyint=250 keyint_min=23 scenecut=40 intra_refresh=0 rc_lookahead=40 rc=crf mbtree=0 crf=19.3000 qcomp=0.60 qpmin=0 qpmax=69 qpstep=4 vbv_maxrate=40000 vbv_bufsize=62500 crf_max=0.0 nal_hrd=none filler=0 ip_ratio=1.40 pb_ratio=1.24 aq=3:0.80
x264 [info]: frame I:2327 Avg QP:16.08 size: 85630
x264 [info]: frame P:44949 Avg QP:17.55 size: 29077
x264 [info]: frame B:136373 Avg QP:19.91 size: 9253
x264 [info]: consecutive B-frames: 2.1% 2.2% 5.5% 64.5% 11.0% 12.3% 1.2% 0.9% 0.2%
x264 [info]: mb I I16..4: 11.0% 73.9% 15.1%
x264 [info]: mb P I16..4: 1.8% 14.7% 1.6% P16..4: 39.9% 26.7% 11.8% 0.0% 0.0% skip: 3.5%
x264 [info]: mb B I16..4: 0.2% 1.0% 0.1% B16..8: 40.2% 10.8% 2.4% direct: 7.6% skip:37.6% L0:41.7% L1:45.8% BI:12.5%
x264 [info]: 8x8 transform intra:79.4% inter:64.9%
x264 [info]: coded y,uvDC,uvAC intra: 84.1% 74.8% 43.8% inter: 23.6% 26.0% 0.9%
x264 [info]: i16 v,h,dc,p: 37% 13% 17% 34%
x264 [info]: i8 v,h,dc,ddl,ddr,vr,hd,vl,hu: 15% 9% 11% 8% 11% 12% 10% 11% 11%
x264 [info]: i4 v,h,dc,ddl,ddr,vr,hd,vl,hu: 28% 10% 5% 8% 11% 12% 10% 9% 9%
x264 [info]: i8c dc,h,v,p: 42% 26% 21% 11%
x264 [info]: Weighted P-Frames: Y:3.0% UV:1.2%
x264 [info]: ref P L0: 47.9% 9.2% 20.9% 5.8% 5.1% 2.9% 2.9% 1.4% 1.5% 1.1% 1.2% 0.0% 0.0%
x264 [info]: ref B L0: 78.5% 11.5% 4.0% 2.0% 1.2% 1.0% 0.7% 0.5% 0.3% 0.2%
x264 [info]: ref B L1: 96.2% 3.8%
x264 [info]: kb/s:2891.10
Runaway Jury
Download / Скачать

Хотите скачать бесплатно? Зарегистрируйтесь на сайте (ссылка на регистрацию). Pirat.ca - самый быстрый торрент трекер в рунете!

Как скачивать  ·   Что такое торрент  ·   Рейтинг и ограничения



Последний раз редактировалось: anton966 (2018-05-14 22:00), всего редактировалось 1 раз

anton966 ®

10747

Пост 14-Май-2018 06:40 (спустя 14 минут)

[Q] 

WEBRip 1080p от Amazon в очередной раз выиграл у Blu-Ray. При немного худшей детализации, нет сваливания в "краснятину" и, конечно, Open Matte:

Дорога с Живовым перекодирована с DTS-HD MA ремукса, с Визгуновым с рипа JIuI3epIIyJIb на тру.

_________________
" ...потому что во многой мудрости много печали; и кто умножает познания, умножает скорбь" ( Еккл 1:17,18)
[Профиль]  [ЛС] 
Показать сообщения:    
Ответить на тему

Текущее время: Сегодня 20:57

Часовой пояс: GMT + 4



Вы не можете начинать темы
Вы не можете отвечать на сообщения
Вы не можете редактировать свои сообщения
Вы не можете удалять свои сообщения
Вы не можете голосовать в опросах
Вы не можете прикреплять файлы к сообщениям
Вы не можете скачивать файлы

Майнать ▼