Анон / Anon (Эндрю Никкол/Andrew Niccol) [2018 г., фантастика, триллер,, WEB-DLRip, 1080p]2хMVO + Sub (Rus)

Ответить на тему
 
Автор
Сообщение

Пост 15-Май-2018 13:05

[Q] 

AlexDjas

Флибустьер

--Анон / Anon--«Аноним - враг системы»-- Производство: Германия, США / K5 Media Group
Год выпуска: 2018 г.
Жанр: фантастика, триллер,
Продолжительность: 01:40:10
Мировая премьера: 3 мая 2018
Российская премьера: 10 мая 2018, «Парадиз»
Перевод: Любительский (многоголосый, закадровый) [AlphaProject]
Перевод 2: Любительский (многоголосый, закадровый) [HDrezka Studio]
Режиссёр: Эндрю Никкол/Andrew Niccol--В ролях: Клайв Оуэн, Аманда Сайфред, Колм Фиор, Соня Уолгер, Марк О’Брайэн, Джо Пинг, Иддо Голдберг, Себастьян Пижотт, Рэйчел Робертс, Тойин Ишола--Описание: Идеальное общество будущего: режим тотального надзора, отсутствие личной жизни, приватных территорий и гражданских прав. Казалось бы, в полностью контролируемом государстве нет места ошибкам и правонарушениям. Но однажды детектив Сол Фриленд знакомится с девушкой, которая не числится в базах данных. Перед копом приоткрывается дверь преступного мира новой эры…-- Качество видео: WEB-DLRip
Контейнер: MKV
Стандарт разрешения: 1080p
Видео кодек: MPEG4 AVC
Аудио кодек: AC3
Видео: H.264/AVC, 1920x1080, 4640 kbps, 24 fps
Аудио: AC3 Dolby Digital, 3/2 (L,C,R,l,r) + LFE ch, 48.0 KHz, 384 Kbps - русский[AlphaProject]
Аудио #2: AC3 Dolby Digital, 2 ch, 48 kHz, 192 kbps - русский[HDrezka Studio]
Cубтитры: русские (форсированные)
Общее
Уникальный идентификатор : 2360271683100065698509142591258364638 (0x1C69260E76A4728904D6A0CC5420ADE)
Полное имя : D:\торрент\Anon_2018_WEB-DLRip_1080p_MVO_[pirat.ca].mkv
Формат : Matroska
Версия формата : Version 4 / Version 2
Размер файла : 3,63 Гбайт
Продолжительность : 1 ч. 40 м.
Режим общего битрейта : Переменный
Общий поток : 5191 Кбит/сек
Название фильма : Anon 2018
Дата кодирования : UTC 2018-05-15 06:27:16
Программа кодирования : mkvmerge v22.0.0 ('At The End Of The World') 64-bit
Библиотека кодирования : libebml v1.3.5 + libmatroska v1.4.8
Видео
Идентификатор : 1
Формат : AVC
Формат/Информация : Advanced Video Codec
Профиль формата : [email protected]
Настройки формата : CABAC / 3 Ref Frames
Параметр CABAC формата : Да
Параметр RefFrames формата : 3 кадра
Идентификатор кодека : V_MPEG4/ISO/AVC
Продолжительность : 1 ч. 40 м.
Вид битрейта : Переменный
Битрейт : 4640 Кбит/сек
Максимальный битрейт : 6960 Кбит/сек
Ширина : 1920 пикселей
Высота : 1080 пикселей
Соотношение сторон : 16:9
Режим частоты кадров : Постоянный
Частота кадров : 24,000 кадра/сек
Цветовое пространство : YUV
Субдискретизация насыщенности : 4:2:0
Битовая глубина : 8 бит
Тип развёртки : Прогрессивная
Бит/(Пиксели*Кадры) : 0.093
Размер потока : 3,23 Гбайт (89%)
Заголовок : Anon 2018
Библиотека кодирования : x264 core 148 r2715 7e75228
Настройки программы : cabac=1 / ref=3 / deblock=1:0:0 / analyse=0x1:0x111 / me=umh / subme=10 / psy=1 / psy_rd=1.00:0.00 / mixed_ref=1 / me_range=24 / chroma_me=1 / trellis=2 / 8x8dct=0 / cqm=0 / deadzone=21,11 / fast_pskip=1 / chroma_qp_offset=-2 / threads=8 / lookahead_threads=1 / sliced_threads=0 / nr=0 / decimate=1 / interlaced=0 / bluray_compat=0 / stitchable=1 / constrained_intra=0 / bframes=2 / b_pyramid=0 / b_adapt=2 / b_bias=0 / direct=3 / weightb=1 / open_gop=0 / weightp=2 / keyint=48 / keyint_min=25 / scenecut=0 / intra_refresh=0 / rc_lookahead=48 / rc=2pass / mbtree=1 / bitrate=4640 / ratetol=1.0 / qcomp=0.50 / qpmin=6 / qpmax=51 / qpstep=4 / cplxblur=20.0 / qblur=0.5 / vbv_maxrate=6960 / vbv_bufsize=9280 / nal_hrd=vbr / filler=0 / ip_ratio=1.40 / aq=1:1.00
Язык : English
Default : Да
Forced : Нет
Аудио #1
Идентификатор : 2
Формат : AC-3
Формат/Информация : Audio Coding 3
Идентификатор кодека : A_AC3
Продолжительность : 1 ч. 40 м.
Вид битрейта : Постоянный
Битрейт : 384 Кбит/сек
Каналы : 6 каналов
Расположение каналов : Front: L C R, Side: L R, LFE
Частота : 48,0 КГц
Частота кадров : 31,250 кадров/сек (1536 SPF)
Битовая глубина : 16 бит
Метод сжатия : С потерями
Размер потока : 275 Мбайт (7%)
Заголовок : AlphaProject
Язык : Russian
ServiceKind/String : Complete Main
Default : Да
Forced : Нет
Аудио #2
Идентификатор : 3
Формат : AC-3
Формат/Информация : Audio Coding 3
Идентификатор кодека : A_AC3
Продолжительность : 1 ч. 40 м.
Вид битрейта : Постоянный
Битрейт : 192 Кбит/сек
Каналы : 2 канала
Расположение каналов : Front: L R
Частота : 48,0 КГц
Частота кадров : 31,250 кадров/сек (1536 SPF)
Битовая глубина : 16 бит
Метод сжатия : С потерями
Размер потока : 138 Мбайт (4%)
Заголовок : HDrezka Studio
Язык : Russian
ServiceKind/String : Complete Main
Default : Нет
Forced : Нет
Текст
Идентификатор : 4
Формат : UTF-8
Идентификатор кодека : S_TEXT/UTF8
Идентификатор кодека/Информация : UTF-8 Plain Text
Продолжительность : 1 ч. 28 м.
Битрейт : 3 бит/сек
ElementCount : 58
Размер потока : 2,44 Кбайт (0%)
Заголовок : Forced
Язык : Russian
Default : Да
Forced : Нет
Download / Скачать

Хотите скачать бесплатно? Зарегистрируйтесь на сайте (ссылка на регистрацию). Pirat.ca - самый быстрый торрент трекер в рунете!

Как скачивать  ·   Что такое торрент  ·   Рейтинг и ограничения

Пост 15-Май-2018 18:12 (спустя 5 часов)

Топик был перенесен из форума Зарубежное Кино (Трюм) в форум Новинки (BD/WEB-DL/HDTV/DVD)
erchine
 

Кристина119

Гроза морей

Пост 15-Май-2018 21:16 (спустя 8 часов)

[Q] 

тянем, спасибо Лови бочку
[Профиль]  [ЛС] 

baradavochnik

Лоцман

Пост 18-Май-2018 12:26 (спустя 2 дня 15 часов)

[Q] 

Неплохо! Тема кибер панка раскрыта. Спасибо за раздачу.
[Профиль]  [ЛС] 

Golsergio

Гроза морей

Пост 18-Май-2018 15:02 (спустя 2 часа 36 минут)

[Q] 

щас заценим Раздающему респект!
[Профиль]  [ЛС] 

petmed

Штурман

Пост 19-Май-2018 01:28 (спустя 10 часов)

[Q] 

спасибо
Автору респект!!! посижу на раздаче
[Профиль]  [ЛС] 

Skala973

Флибустьер

Пост 19-Май-2018 15:29 (спустя 14 часов)

[Q] 

Да, веяния любопытные.
Интересно, а это можно рассматривать как "пророческий" фильм? Ну в плане что к этому идёт развитие цивилизации?
Вот уже сколько лет мечтаю, чтобы кто-то додумался экранизировать антиутопию "Этот идеальный день".
Вот тут тема была бы!!!
Но и этот не плох, хотя есть мелкие нестыковки.
[Профиль]  [ЛС] 
Показать сообщения:    
Ответить на тему

Текущее время: Сегодня 23:38

Часовой пояс: GMT + 4



Вы не можете начинать темы
Вы не можете отвечать на сообщения
Вы не можете редактировать свои сообщения
Вы не можете удалять свои сообщения
Вы не можете голосовать в опросах
Вы не можете прикреплять файлы к сообщениям
Вы не можете скачивать файлы

Майнать ▼