Вольта / Volta (Юлиуш Махульский / Juliusz Machulski) [2017 г., комедия, BDRemux, 1080p] VO (Михаил Чадов) Sub (Rus,Pol,Eng)

Ответить на тему
 
Автор
Сообщение

Пост 16-Май-2018 13:59

[Q] 

AlexDjas

Флибустьер

Вольта / Volta
Год выпуска: 2017
Производство: Польша
Жанр: комедия
Продолжительность: 01:41:04
Перевод: Любительский (одноголосый, закадровый) Михаил Чадов
Субтитры: русские(Forced, цензурные, не цензурные), польские, английские
Режиссер: Юлиуш Махульский / Juliusz Machulski
В ролях: Анджей Зелиньски, Ольга Болондзь, Александра Доманьска, Михал Журавски, Яцек Брачак, Иоанна Щепковска, Катажина Херман, Малгожата Бучковска
Описание: Во время ремонта квартиры в центре Люблина Вики находит замурованную в стене королевскую корону, которая некогда принадлежала Казимиру Великому. Королевская драгоценность вызывает интерес у Бруно Вольты, пиарщика, который занимается избирательной кампанией «правого» политика, участвующего в президентских выборах. Если Вольта завладеет древней короной, то его кандидат выиграет в выборах, а после инаугурации установит в Польше монархию и станет абсолютным монархом.
, ,
Качество видео: BDRemux
Контейнер: MKV
Стандарт разрешения: 1080p
Видео кодек: MPEG4 AVC
Аудио кодек: DTS
Видео: H.264/AVC, 1920x1080 (16:9), ~34,1 Mbps, 25 fps
Аудио : DTS, 3/2 (L,C,R,l,r) + LFE ch, 48.0 KHz, 4015 kbps, 24-bit - Михаил Чадов (цензурный)
Аудио #2: DTS, 3/2 (L,C,R,l,r) + LFE ch, 48.0 KHz, 4015 kbps, 24-bit - Михаил Чадов (не цензурный)
Аудио #3: DTS,3/2 (L,C,R,l,r) + LFE ch, 48.0 KHz, 4019 kbps, 24-bit - Польский
Общее
Уникальный идентификатор : 171466749464814923846307410254799922783 (0x80FF4B732B7E23921C148A580301665F)
Полное имя : D:\торрент\Volta_2017_BDRemux_1080p_AVO_[pirat.ca].mkv
Формат : Matroska
Версия формата : Version 2
Размер файла : 32,6 Гбайт
Продолжительность : 1 ч. 41 м.
Общий поток : 46,2 Мбит/сек
Дата кодирования : UTC 2018-05-13 09:49:50
Программа кодирования : mkvmerge v22.0.0 ('At The End Of The World') 64-bit
Библиотека кодирования : libebml v1.3.5 + libmatroska v1.4.8
Обложка : Yes
Attachments : cover.jpg
Видео
Идентификатор : 1
Формат : AVC
Формат/Информация : Advanced Video Codec
Профиль формата : [email protected]
Настройки формата : CABAC / 4 Ref Frames
Параметр CABAC формата : Да
Параметр RefFrames формата : 4 кадра
Параметр GOP формата : M=3, N=24
Идентификатор кодека : V_MPEG4/ISO/AVC
Продолжительность : 1 ч. 41 м.
Вид битрейта : Постоянный
Битрейт : 35,0 Мбит/сек
Ширина : 1920 пикселей
Высота : 1080 пикселей
Соотношение сторон : 16:9
Режим частоты кадров : Постоянный
Частота кадров : 25,000 кадров/сек
Стандарт вещания : PAL
Цветовое пространство : YUV
Субдискретизация насыщенности : 4:2:0
Битовая глубина : 8 бит
Тип развёртки : MBAFF
Метод сохранения типа развёртки : Чередующиеся поля
Порядок развёртки : Верхнее поле первое
Бит/(Пиксели*Кадры) : 0.675
Размер потока : 24,1 Гбайт (74%)
Язык : English
Default : Да
Forced : Нет
Цветовой диапазон : Limited
Основные цвета : BT.709
Характеристики трансфера : BT.709
Коэффициенты матрицы : BT.709
Аудио #1
Идентификатор : 2
Формат : DTS
Формат/Информация : Digital Theater Systems
Профиль формата : MA / Core
Идентификатор кодека : A_DTS
Продолжительность : 1 ч. 41 м.
Вид битрейта : Переменный / Постоянный
Битрейт : 4014 Кбит/сек / 1509 Кбит/сек
Каналы : 6 каналов
Расположение каналов : Front: L C R, Side: L R, LFE
Частота : 48,0 КГц
Частота кадров : 93,750 кадра/сек (512 SPF)
Битовая глубина : 24 бит
Метод сжатия : Без потерь / Lossy
Размер потока : 2,83 Гбайт (9%)
Заголовок : Чадов
Язык : Russian
Default : Да
Forced : Нет
Аудио #2
Идентификатор : 3
Формат : DTS
Формат/Информация : Digital Theater Systems
Профиль формата : MA / Core
Идентификатор кодека : A_DTS
Продолжительность : 1 ч. 41 м.
Вид битрейта : Переменный / Постоянный
Битрейт : 4014 Кбит/сек / 1509 Кбит/сек
Каналы : 6 каналов
Расположение каналов : Front: L C R, Side: L R, LFE
Частота : 48,0 КГц
Частота кадров : 93,750 кадра/сек (512 SPF)
Битовая глубина : 24 бит
Метод сжатия : Без потерь / Lossy
Размер потока : 2,83 Гбайт (9%)
Заголовок : Чадов (нецензурный)
Язык : Russian
Default : Нет
Forced : Нет
Аудио #3
Идентификатор : 4
Формат : DTS
Формат/Информация : Digital Theater Systems
Профиль формата : MA / Core
Идентификатор кодека : A_DTS
Продолжительность : 1 ч. 41 м.
Вид битрейта : Переменный / Постоянный
Битрейт : 4018 Кбит/сек / 1509 Кбит/сек
Каналы : 6 каналов
Расположение каналов : Front: L C R, Side: L R, LFE
Частота : 48,0 КГц
Частота кадров : 93,750 кадра/сек (512 SPF)
Битовая глубина : 24 бит
Метод сжатия : Без потерь / Lossy
Размер потока : 2,84 Гбайт (9%)
Язык : Polish
Default : Нет
Forced : Нет
Текст #1
Идентификатор : 5
Формат : UTF-8
Идентификатор кодека : S_TEXT/UTF8
Идентификатор кодека/Информация : UTF-8 Plain Text
Продолжительность : 1 ч. 28 м.
Битрейт : 5 бит/сек
ElementCount : 57
Размер потока : 3,77 Кбайт (0%)
Заголовок : Forced
Язык : Russian
Default : Да
Forced : Нет
Текст #2
Идентификатор : 6
Формат : UTF-8
Идентификатор кодека : S_TEXT/UTF8
Идентификатор кодека/Информация : UTF-8 Plain Text
Продолжительность : 1 ч. 38 м.
Битрейт : 121 бит/сек
ElementCount : 1518
Размер потока : 87,9 Кбайт (0%)
Язык : Russian
Default : Нет
Forced : Нет
Текст #3
Идентификатор : 7
Формат : UTF-8
Идентификатор кодека : S_TEXT/UTF8
Идентификатор кодека/Информация : UTF-8 Plain Text
Продолжительность : 1 ч. 38 м.
Битрейт : 121 бит/сек
ElementCount : 1518
Размер потока : 88,0 Кбайт (0%)
Заголовок : нецензурные
Язык : Russian
Default : Нет
Forced : Нет
Текст #4
Идентификатор : 8
Формат : PGS
Режим смешивания : zlib
Идентификатор кодека : S_HDMV/PGS
Идентификатор кодека/Информация : Picture based subtitle format used on BDs/HD-DVDs
Продолжительность : 40 м. 6 с.
Битрейт : 2719 бит/сек
ElementCount : 92
Размер потока : 799 Кбайт (0%)
Язык : Polish
Default : Нет
Forced : Нет
Текст #5
Идентификатор : 9
Формат : PGS
Режим смешивания : zlib
Идентификатор кодека : S_HDMV/PGS
Идентификатор кодека/Информация : Picture based subtitle format used on BDs/HD-DVDs
Продолжительность : 1 ч. 37 м.
Битрейт : 31,4 Кбит/сек
ElementCount : 2478
Размер потока : 21,9 Мбайт (0%)
Язык : English
Default : Нет
Forced : Нет
Меню
00:00:00.000 : en:Chapter 1
00:12:44.400 : en:Chapter 2
00:25:22.360 : en:Chapter 3
00:35:25.200 : en:Chapter 4
00:51:31.840 : en:Chapter 5
01:04:54.720 : en:Chapter 6
01:17:01.000 : en:Chapter 7
01:31:27.680 : en:Chapter 8
Download / Скачать

Хотите скачать бесплатно? Зарегистрируйтесь на сайте (ссылка на регистрацию). Pirat.ca - самый быстрый торрент трекер в рунете!

Как скачивать  ·   Что такое торрент  ·   Рейтинг и ограничения



Последний раз редактировалось: AlexDjas (2018-05-17 07:29), всего редактировалось 1 раз

Дядя Витя

60623

Пост 16-Май-2018 21:21 (спустя 7 часов)

[Q] 

Юлиуш Махульский когда-то снял Ва-банк и Дежа вю)
Супер!

_________________
?
[Профиль]  [ЛС] 

anton966

10747

Пост 17-Май-2018 05:08 (спустя 7 часов)

[Q] 

Только вот г-н Чадов имеет отношение к авторскому переводу как Боярский к опере. Переезжаем.

_________________
" ...потому что во многой мудрости много печали; и кто умножает познания, умножает скорбь" ( Еккл 1:17,18)
[Профиль]  [ЛС] 

gross1978

7632

Пост 19-Май-2018 12:47 (спустя 2 дня 7 часов)

[Q] 

Да Миша Чадов и не профессиональный переводчик. Вроде просто наговоры делает по чужим переводам.....

_________________
Употребляйте правильно слова, и вы избавите мир от половины недоразумений (Р.Декарт).
Если у Вас есть переводы в авторском, которых нет в моих раздачах и желание ими поделиться, пишите, добавим:)
[Профиль]  [ЛС] 

Пост 19-Май-2018 13:19 (спустя 32 минуты)

Топик был перенесен из форума Зарубежное Кино (Трюм) в форум Новинки (BD/WEB-DL/HDTV/DVD)
erchine
 

Skala973

Флибустьер

Пост 19-Май-2018 15:26 (спустя 2 часа 38 минут)

[Q] 

Спасибо за раздачу.
Фильм хороший, но сюжет заезжанный.
Прямо с момента появления той девки перед машиной, уже понятно было чем окончится сюжет. Ну оформление того, как будет идти развитие сюжетной линии имеет свой польский оттенок. Особенно фамилии первых лиц этой партии порадовали.
А так, посмотрел разок и удалил.
Но смотрел с интересом.
[Профиль]  [ЛС] 
Показать сообщения:    
Ответить на тему

Текущее время: Сегодня 20:57

Часовой пояс: GMT + 4



Вы не можете начинать темы
Вы не можете отвечать на сообщения
Вы не можете редактировать свои сообщения
Вы не можете удалять свои сообщения
Вы не можете голосовать в опросах
Вы не можете прикреплять файлы к сообщениям
Вы не можете скачивать файлы

Майнать ▼