Познакомьтесь с Уолли Спарксом / Meet Wally Sparks (Питер Болдуин / Peter Baldwin) [1997 г., Комедия, WEBRip-AVC] AVO (Павел Санаев) + Subs (Rus)

Ответить на тему
 
Автор
Сообщение

Пост 17-Май-2018 05:44

[Q] 

anton966

Познакомьтесь с Уолли Спарксом / Meet Wally Sparks
«He's a menace to High Society»
- Год выпуска: 1997
Производство: Largo Entertainment, США
Жанр: Комедия
Продолжительность: 01:45:51
Перевод: Авторский (одноголосый, закадровый) Павел Санаев
Субтитры: русские
Режиссер: Питер Болдуин / Peter Baldwin
В ролях: Родни Дейнджрфилд, Деби Мейзар, Дэвид Огден Стайерз, Берт Рейнолдс, Рита МакКензи, Лиза Торнхилл, Марк Л. Тейлор, Синди Уильямс, Гилберт Готтфрид, Тони Данца, ...
Описание: Все видеолюбители со стажем наверняка помнят комедии "Легкие деньги" и "Снова в школу" с замечательным комиком Родни Дэнжерфилдом. Настоящее имя этого человека с выпуклыми глазами и скромным животиком - Джек Коэн (Jack Cohen). Родился он в 1921 году в Вавилоне, штат Нью-Йорк, а карьеру начал в 40-х годах, веселя народ в ночных клубах. Он был постоянным участником телешоу "Шоу Дина Мартина", и такая работа определила насыщенность его комедий.
В фильме "Познакомьтесь с Уолли Спарксом" он играет почти самого себя, ведет юмористическое ток-шоу. Юмор его груб, вульгарен, но чертовски смешон, как умопомрачительно смешна и вся эта комедия. Владелец шоу (Рейнолдс) хочет уволить Спаркса за беспощадное отношение к спонсорам, несмотря на то, что рейтинг программы высок. Но тут в судьбу Уолли вмешивается сын губернатора, выставившего свою кандидатуру в Cенат. Он посылает Уолли Спарксу приглашение на прием, а после этого... Губернатор, ненавидящий "ужасного" похабника, против своей воли становится участником двух его передач. Фильм динамичен, шутки, остроты и клоунада льются каскадом, напряжение постоянно нарастает, играют все актеры с вдохновением. Конечно, картина чисто американская - в полной мере присутствует сентиментальность, есть победа хороших над плохими, хэппи-энд и прочее, но сделано все на самом высоком уровне.


Качество видео: WEBRip-AVC
Контейнер: MKV
Видео кодек: AVC/x.264
Видео: 1088x612 / 2797 kbps / 23,976 fps / 16:9 / High Profile 4.1
Аудио : 48 kHz, AC3 Dolby Digital, 2/0 (L,R) ch, ~192 kbps - Павел Санаев*
* - Дорожка взята с DVD5 R1. Синхронизирована без перекодирования.
Формат : Matroska
Версия формата : Version 4 / Version 2
Размер файла : 2,21 Гбайт
Продолжительность : 1 ч. 45 м.
Общий поток : 2991 Кбит/сек
Название фильма : Meet Wally Sparks.1997.WEBRip-AVC.Sanaev.Subs -=anton966=-
Дата кодирования : UTC 2018-05-17 00:57:34
Программа кодирования : mkvmerge v8.3.0 ('Over the Horizon') 64bit
Библиотека кодирования : libebml v1.3.1 + libmatroska v1.4.2
Видео
Идентификатор : 1
Формат : AVC
Формат/Информация : Advanced Video Codec
Профиль формата : [email protected]
Настройки формата : CABAC / 12 Ref Frames
Параметр CABAC формата : Да
Параметр RefFrames формата : 12 кадров
Идентификатор кодека : V_MPEG4/ISO/AVC
Продолжительность : 1 ч. 45 м.
Битрейт : 2797 Кбит/сек
Ширина : 1088 пикселей
Высота : 612 пикселей
Соотношение сторон : 16:9
Режим частоты кадров : Постоянный
Частота кадров : 23,976 (24000/1001) кадра/сек
Цветовое пространство : YUV
Субдискретизация насыщенности : 4:2:0
Битовая глубина : 8 бит
Тип развёртки : Прогрессивная
Бит/(Пиксели*Кадры) : 0.175
Размер потока : 2,07 Гбайт (94%)
Заголовок : Meet Wally Sparks.1997.WEBRip-AVC
Библиотека кодирования : x264 core 152 r2851kMod ba24899
Настройки программы : cabac=1 / ref=12 / deblock=1:-3:-3 / analyse=0x3:0x113 / me=umh / subme=10 / psy=1 / fade_compensate=0.00 / psy_rd=1.05:0.15 / mixed_ref=1 / me_range=32 / chroma_me=1 / trellis=2 / 8x8dct=1 / cqm=0 / deadzone=21,11 / fast_pskip=0 / chroma_qp_offset=-3 / threads=6 / lookahead_threads=1 / sliced_threads=0 / nr=0 / decimate=1 / interlaced=0 / bluray_compat=0 / constrained_intra=0 / bframes=7 / b_pyramid=2 / b_adapt=2 / b_bias=0 / direct=1 / weightb=1 / open_gop=0 / weightp=2 / keyint=250 / keyint_min=23 / scenecut=40 / intra_refresh=0 / rc_lookahead=40 / rc=crf / mbtree=0 / crf=19.3000 / qcomp=0.60 / qpmin=0 / qpmax=69 / qpstep=4 / vbv_maxrate=40000 / vbv_bufsize=62500 / crf_max=0.0 / nal_hrd=none / filler=0 / ip_ratio=1.40 / pb_ratio=1.24 / aq=3:0.80
Язык : English
Default : Да
Forced : Нет
Цветовой диапазон : Limited
Основные цвета : BT.709
Характеристики трансфера : BT.709
Коэффициенты матрицы : BT.709
Аудио
Идентификатор : 2
Формат : AC-3
Формат/Информация : Audio Coding 3
Идентификатор кодека : A_AC3
Продолжительность : 1 ч. 45 м.
Вид битрейта : Постоянный
Битрейт : 192 Кбит/сек
Каналы : 2 канала
Расположение каналов : Front: L R
Частота : 48,0 КГц
Частота кадров : 31,250 кадров/сек (1536 SPF)
Битовая глубина : 16 бит
Метод сжатия : С потерями
Размер потока : 145 Мбайт (6%)
Заголовок : Sanaev
Язык : Russian
ServiceKind/String : Complete Main
Default : Да
Forced : Нет
Текст
Идентификатор : 3
Формат : UTF-8
Идентификатор кодека : S_TEXT/UTF8
Идентификатор кодека/Информация : UTF-8 Plain Text
Продолжительность : 1 ч. 40 м.
Битрейт : 114 бит/сек
ElementCount : 1826
Размер потока : 84,1 Кбайт (0%)
Язык : Russian
Default : Нет
Forced : Нет
Меню
00:00:26.432 : en:Chapter 1
00:05:26.832 : en:Chapter 2
00:06:59.932 : en:Chapter 3
00:10:18.932 : en:Chapter 4
00:12:15.766 : en:Chapter 5
00:17:08.899 : en:Chapter 6
00:19:16.767 : en:Chapter 7
00:22:13.501 : en:Chapter 8
00:25:16.001 : en:Chapter 9
00:30:05.768 : en:Chapter 10
00:34:49.868 : en:Chapter 11
00:38:35.469 : en:Chapter 12
00:41:33.370 : en:Chapter 13
00:44:23.971 : en:Chapter 14
00:48:01.872 : en:Chapter 15
00:50:01.872 : en:Chapter 16
00:53:21.806 : en:Chapter 17
00:56:06.240 : en:Chapter 18
00:59:45.607 : en:Chapter 19
01:05:13.208 : en:Chapter 20
01:10:15.708 : en:Chapter 21
01:13:17.342 : en:Chapter 22
01:16:05.475 : en:Chapter 23
01:20:03.709 : en:Chapter 24
01:22:04.976 : en:Chapter 25
01:26:27.844 : en:Chapter 26
01:29:38.977 : en:Chapter 27
01:32:53.477 : en:Chapter 28
01:35:21.078 : en:Chapter 29
01:41:38.946 : en:Chapter 30
01:45:46.413 : en:Chapter 31
avs [info]: 1088x612p 1:1 @ 24000/1001 fps (cfr)
x264 [info]: using SAR=1/1
x264 [info]: using cpu capabilities: MMX2 SSE2Fast SSSE3 SSE4.2 AVX XOP FMA3 BMI1
x264 [info]: profile High, level 4.1
x264 [info]: cabac=1 ref=12 deblock=1:-3:-3 analyse=0x3:0x113 me=umh subme=10 psy=1 fade_compensate=0.00 psy_rd=1.05:0.15 mixed_ref=1 me_range=32 chroma_me=1 trellis=2 8x8dct=1 cqm=0 deadzone=21,11 fast_pskip=0 chroma_qp_offset=-3 threads=6 lookahead_threads=1 sliced_threads=0 nr=0 decimate=1 interlaced=0 bluray_compat=0 constrained_intra=0 bframes=7 b_pyramid=2 b_adapt=2 b_bias=0 direct=1 weightb=1 open_gop=0 weightp=2 keyint=250 keyint_min=23 scenecut=40 intra_refresh=0 rc_lookahead=40 rc=crf mbtree=0 crf=19.3000 qcomp=0.60 qpmin=0 qpmax=69 qpstep=4 vbv_maxrate=40000 vbv_bufsize=62500 crf_max=0.0 nal_hrd=none filler=0 ip_ratio=1.40 pb_ratio=1.24 aq=3:0.80
x264 [info]: frame I:1443 Avg QP:17.40 size: 77443
x264 [info]: frame P:33269 Avg QP:18.95 size: 27324
x264 [info]: frame B:117581 Avg QP:21.04 size: 10206
x264 [info]: consecutive B-frames: 1.6% 1.8% 8.0% 29.6% 16.5% 36.3% 4.5% 1.7%
x264 [info]: mb I I16..4: 5.4% 79.6% 15.1%
x264 [info]: mb P I16..4: 1.5% 17.6% 2.5% P16..4: 37.9% 24.5% 11.7% 0.0% 0.0% skip: 4.2%
x264 [info]: mb B I16..4: 0.2% 1.7% 0.3% B16..8: 39.8% 12.2% 2.9% direct: 7.5% skip:35.4% L0:41.2% L1:44.1% BI:14.6%
x264 [info]: 8x8 transform intra:80.5% inter:67.0%
x264 [info]: coded y,uvDC,uvAC intra: 84.0% 73.2% 37.1% inter: 26.7% 21.0% 0.6%
x264 [info]: i16 v,h,dc,p: 26% 10% 12% 52%
x264 [info]: i8 v,h,dc,ddl,ddr,vr,hd,vl,hu: 18% 9% 9% 8% 11% 12% 11% 12% 12%
x264 [info]: i4 v,h,dc,ddl,ddr,vr,hd,vl,hu: 30% 6% 5% 7% 11% 12% 10% 9% 9%
x264 [info]: i8c dc,h,v,p: 37% 26% 24% 13%
x264 [info]: Weighted P-Frames: Y:2.7% UV:1.0%
x264 [info]: ref P L0: 45.8% 11.8% 18.3% 5.7% 5.0% 3.2% 3.1% 1.6% 1.6% 1.2% 1.3% 1.1% 0.0% 0.0%
x264 [info]: ref B L0: 79.1% 9.8% 4.1% 2.0% 1.4% 1.1% 0.9% 0.6% 0.5% 0.3% 0.2%
x264 [info]: ref B L1: 95.6% 4.4%
x264 [info]: kb/s:2797.08
Download / Скачать

Хотите скачать бесплатно? Зарегистрируйтесь на сайте (ссылка на регистрацию). Pirat.ca - самый быстрый торрент трекер в рунете!

Как скачивать  ·   Что такое торрент  ·   Рейтинг и ограничения



Последний раз редактировалось: anton966 (2018-05-17 11:28), всего редактировалось 1 раз

anton966 ®

10747

Пост 17-Май-2018 06:50 (спустя 1 час 6 минут)

[Q] 

В сети есть 2 WEBRip 1080p от Amazon. От monkee, с заставкой и редко появляющимся логотипом:
,
и от SIGMA:
,
без заставки, логотипа и с бОльшим бит рейтом. Но выбрал первый по причине сильной засвеченности вэбки от SIGMA:

_________________
" ...потому что во многой мудрости много печали; и кто умножает познания, умножает скорбь" ( Еккл 1:17,18)
[Профиль]  [ЛС] 
Показать сообщения:    
Ответить на тему

Текущее время: Сегодня 20:57

Часовой пояс: GMT + 4



Вы не можете начинать темы
Вы не можете отвечать на сообщения
Вы не можете редактировать свои сообщения
Вы не можете удалять свои сообщения
Вы не можете голосовать в опросах
Вы не можете прикреплять файлы к сообщениям
Вы не можете скачивать файлы

Майнать ▼