(Shanson) Игорь Погорелов (Росписной) - Не ждали (2006) [FLAC, image+.cue, Lossless]

Ответить на тему
 
Автор
Сообщение

Пост 27-Май-2018 20:07

[Q] 

Reno-19

Корсар

Игорь Погорелов (Росписной) - Не ждали (2006) - Год: 2006
Жанр: Шансон
Издание: Союз Продакшн CD КСП 01-2006
Источник (релизер): eloychik ®
Продолжительность: 00:47:07
Кодек: FLAC
Битрейт: Lossless
Тип рипа: image + .cue
Треклист:
01. Эх, времечко
02. Сероглазая
03. Благослови
04. Звезда
05. Следоки
06. Полоса терпения
07. Тюрьма
08. Срок
09. Голуби
10. Поселок Яренга
11. Не ждали
12. Принцесса
13. Сон наяву
14. Предавали нечасто меня
Код:
Exact Audio Copy V1.3 from 2. September 2016
Отчёт EAC об извлечении, выполненном 19. января 2018, 17:48
Игорь Погорелов (Росписной) / Не ждали
Дисковод: ASUS    DRW-24D5MT   Adapter: 1  ID: 0
Режим чтения                 : Достоверность
Использование точного потока : Да
Отключение кэша аудио        : Да
Использование указателей C2  : Нет
Коррекция смещения при чтении                     : 6
Способность читать области Lead-in и Lead-out     : Нет
Заполнение пропущенных сэмплов тишиной            : Да
Удаление блоков с тишиной в начале и конце        : Нет
При вычислениях CRC использовались нулевые сэмплы : Да
Интерфейс                                         : Встроенный Win32-интерфейс для Win NT/2000
Выходной формат          : Пользовательский кодировщик
Выбранный битрейт        : 128 kBit/s
Качество                 : Высокий
Добавление ID3-тега      : Нет
Утилита сжатия           : C:\Program Files (x86)\Exact Audio Copy\Flac\flac.exe
Дополнительные параметры : -V -8 -T "Date=%year%" -T "Genre=%genre%" %source%
TOC извлечённого CD
     Трек |   Старт  | Длительность | Начальный сектор | Конечный сектор
    ---------------------------------------------------------------------
       1  |  0:00.00 |    3:30.38   |           0      |      15787
       2  |  3:30.38 |    2:14.40   |       15788      |      25877
       3  |  5:45.03 |    4:19.64   |       25878      |      45366
       4  | 10:04.67 |    4:31.20   |       45367      |      65711
       5  | 14:36.12 |    3:43.54   |       65712      |      82490
       6  | 18:19.66 |    2:54.69   |       82491      |      95609
       7  | 21:14.60 |    3:17.28   |       95610      |     110412
       8  | 24:32.13 |    4:25.38   |      110413      |     130325
       9  | 28:57.51 |    3:57.64   |      130326      |     148164
      10  | 32:55.40 |    4:03.25   |      148165      |     166414
      11  | 36:58.65 |    3:20.71   |      166415      |     181485
      12  | 40:19.61 |    2:28.47   |      181486      |     192632
      13  | 42:48.33 |    2:07.03   |      192633      |     202160
      14  | 44:55.36 |    2:11.57   |      202161      |     212042
Характеристики диапазона извлечения и сообщения об ошибках
Выбранный диапазон
     Имя файла E:\Раздачи\NNMClub-eloychik ®\Игорь Погорелов (Росписной) - Не ждали [NNM-CLUB.NAME]\Игорь Погорелов (Росписной) - Не ждали.wav
     Пиковый уровень 100.0 %
     Скорость извлечения 6.9 X
     Качество диапазона 100.0 %
     CRC теста 402FEBCE
     CRC копии 402FEBCE
     Копирование... OK
Ошибок не произошло
AccurateRip: сводка
Трек  1  точность не определена (достоверность 1)  [22677842], AccurateRip вернул [1F8DA4D0]  (AR v2)
Трек  2  точность не определена (достоверность 1)  [18D560FE], AccurateRip вернул [E48D3549]  (AR v2)
Трек  3  точность не определена (достоверность 1)  [ECCC4286], AccurateRip вернул [84AF5848]  (AR v2)
Трек  4  точность не определена (достоверность 1)  [80721792], AccurateRip вернул [CBB43433]  (AR v2)
Трек  5  точность не определена (достоверность 1)  [3D9122A5], AccurateRip вернул [522254F7]  (AR v2)
Трек  6  точность не определена (достоверность 1)  [685BE40A], AccurateRip вернул [077A0143]  (AR v2)
Трек  7  точность не определена (достоверность 1)  [E77C6675], AccurateRip вернул [56C74D29]  (AR v2)
Трек  8  точность не определена (достоверность 1)  [17CF3B55], AccurateRip вернул [C5FB63F0]  (AR v2)
Трек  9  точность не определена (достоверность 1)  [2C79EDCB], AccurateRip вернул [D598924C]  (AR v2)
Трек 10  точность не определена (достоверность 1)  [A88E819A], AccurateRip вернул [5374CE48]  (AR v2)
Трек 11  точность не определена (достоверность 1)  [B50236F6], AccurateRip вернул [1C22381E]  (AR v2)
Трек 12  точность не определена (достоверность 1)  [AF98C018], AccurateRip вернул [193E65A7]  (AR v2)
Трек 13  точность не определена (достоверность 1)  [46938BAD], AccurateRip вернул [3C9AE01A]  (AR v2)
Трек 14  точность не определена (достоверность 1)  [9AE3CE6E], AccurateRip вернул [E48B7ABC]  (AR v2)
Ни один трек не прошёл проверки на точность
В вашей базе может быть иной вариант штамповки диска
Конец отчёта
==== Контрольная сумма отчёта EFFFF86C7846AC5BECEBA1EF072E07E83A62ADA183024241C90E33BC0A08610F ====
Код:
REM GENRE Chanson
REM DATE 2006
REM DISCID BC0B0B0E
REM COMMENT "ExactAudioCopy v1.3"
PERFORMER "Игорь Погорелов (Росписной)"
TITLE "Не ждали"
REM COMPOSER ""
FILE "Игорь Погорелов (Росписной) - Не ждали.flac" WAVE
  TRACK 01 AUDIO
    TITLE "Эх, времечко"
    PERFORMER "Игорь Погорелов (Росписной)"
    REM COMPOSER ""
    INDEX 01 00:00:00
  TRACK 02 AUDIO
    TITLE "Сероглазая"
    PERFORMER "Игорь Погорелов (Росписной)"
    REM COMPOSER ""
    INDEX 00 03:28:38
    INDEX 01 03:30:38
  TRACK 03 AUDIO
    TITLE "Благослови"
    PERFORMER "Игорь Погорелов (Росписной)"
    REM COMPOSER ""
    INDEX 01 05:45:03
  TRACK 04 AUDIO
    TITLE "Звезда"
    PERFORMER "Игорь Погорелов (Росписной)"
    REM COMPOSER ""
    INDEX 00 10:02:67
    INDEX 01 10:04:67
  TRACK 05 AUDIO
    TITLE "Следоки"
    PERFORMER "Игорь Погорелов (Росписной)"
    REM COMPOSER ""
    INDEX 00 14:34:12
    INDEX 01 14:36:12
  TRACK 06 AUDIO
    TITLE "Полоса терпения"
    PERFORMER "Игорь Погорелов (Росписной)"
    REM COMPOSER ""
    INDEX 00 18:17:66
    INDEX 01 18:19:66
  TRACK 07 AUDIO
    TITLE "Тюрьма"
    PERFORMER "Игорь Погорелов (Росписной)"
    REM COMPOSER ""
    INDEX 00 21:12:60
    INDEX 01 21:14:60
  TRACK 08 AUDIO
    TITLE "Срок"
    PERFORMER "Игорь Погорелов (Росписной)"
    REM COMPOSER ""
    INDEX 00 24:30:13
    INDEX 01 24:32:13
  TRACK 09 AUDIO
    TITLE "Голуби"
    PERFORMER "Игорь Погорелов (Росписной)"
    REM COMPOSER ""
    INDEX 00 28:55:51
    INDEX 01 28:57:51
  TRACK 10 AUDIO
    TITLE "Поселок Яренга"
    PERFORMER "Игорь Погорелов (Росписной)"
    REM COMPOSER ""
    INDEX 00 32:53:40
    INDEX 01 32:55:40
  TRACK 11 AUDIO
    TITLE "Не ждали"
    PERFORMER "Игорь Погорелов (Росписной)"
    REM COMPOSER ""
    INDEX 00 36:56:65
    INDEX 01 36:58:65
  TRACK 12 AUDIO
    TITLE "Принцесса"
    PERFORMER "Игорь Погорелов (Росписной)"
    REM COMPOSER ""
    INDEX 00 40:17:61
    INDEX 01 40:19:61
  TRACK 13 AUDIO
    TITLE "Сон наяву"
    PERFORMER "Игорь Погорелов (Росписной)"
    REM COMPOSER ""
    INDEX 00 42:46:33
    INDEX 01 42:48:33
  TRACK 14 AUDIO
    TITLE "Предавали нечасто меня"
    PERFORMER "Игорь Погорелов (Росписной)"
    REM COMPOSER ""
    INDEX 00 44:53:36
    INDEX 01 44:55:36
Код:
-----------------------
DON'T MODIFY THIS FILE
-----------------------
PERFORMER: auCDtect Task Manager, ver. 1.6.0 RC1 build 1.6.0.1
Copyright (c) 2008-2010 y-soft. All rights reserved
http://y-soft.org
ANALYZER: auCDtect: CD records authenticity detector, version 0.8.2
Copyright (c) 2004 Oleg Berngardt. All rights reserved.
Copyright (c) 2004 Alexander Djourik. All rights reserved.
FILE: Игорь Погорелов (Росписной) - Не ждали.flac
  Size: 355960691 Hash: 3F4DECD00201B9FC3E986034D06821C3 Accuracy: -m0
  Conclusion: CDDA 99%
  Signature: 999288D9D8E56EF55BE0DC5C85D21F2C738E46D5
Download / Скачать

Хотите скачать бесплатно? Зарегистрируйтесь на сайте (ссылка на регистрацию). Pirat.ca - самый быстрый торрент трекер в рунете!

Как скачивать  ·   Что такое торрент  ·   Рейтинг и ограничения

Показать сообщения:    
Ответить на тему

Текущее время: Сегодня 00:33

Часовой пояс: GMT + 4



Вы не можете начинать темы
Вы не можете отвечать на сообщения
Вы не можете редактировать свои сообщения
Вы не можете удалять свои сообщения
Вы не можете голосовать в опросах
Вы не можете прикреплять файлы к сообщениям
Вы не можете скачивать файлы

Майнать ▼