Невидимка / In Darkness (Энтони Бирн / Anthony Byrne) [2018 г., Триллер, WEB-DL, 1080p] MVO Sub (Rus)

Ответить на тему
 
Автор
Сообщение

Пост 03-Июн-2018 15:06

[Q] 

AlexDjas

Флибустьер

--Невидимка / In Darkness--«Невидимое - самое страшное оружие»-- Производство: Великобритания, США
Год выпуска: 2018 г.
Жанр: Триллер
Продолжительность: 01:41:12
Мировая премьера: 23 мая 2018
Российская премьера: 5 июля 2018, «Экспонента»
Перевод: Любительский (многоголосый, закадровый) [HDRezka studio]
Режиссёр: Энтони Бирн / Anthony Byrne--В ролях: Натали Дормер, Эмили Ратаковски, Эд Скрейн, Джоэли Ричардсон, Джеймс Космо, Нил Мэскелл, Эмбер Андерсон, Ян Бейвут, Бернард Коллако--Описание: В последнее время слепая пианистка София стала все чаще слышать посторонний мужской голос, доносящийся из квартиры Вероники, её соседки сверху. Очередной визит незнакомца заканчивается ссорой, в процессе которой Вероника выпадает из окна своей квартиры и погибает. Полиция предполагает, что девушка совершила самоубийство, и лишь София догадывается, что же произошло на самом деле. Она оказывается втянута в опасную игру, в которой замешаны международные преступники и мафия, вот только они еще не знают, что у девушки на этот счет уже есть свои планы...-- Качество видео: WEB-DL
Контейнер: MKV
Стандарт разрешения: 1080p
Видео кодек: MPEG4 AVC
Аудио кодек: AC3
Видео: AVC/H.264, 1920x800, ~5359 kbps, 23.976 fps
Аудио: AC3, 48 kHz, 2 ch, 192 Kbps - Русский (HDRezka studio)
Cубтитры: русские
Общее
Уникальный идентификатор : 52686276750736810497837963124079607034 (0x27A301FF8664D0C3CBF7341779083CFA)
Полное имя : G:\Фильмы\In_Darkness_2018_WEB-DL_1080p[pirat.ca].mkv
Формат : Matroska
Версия формата : Version 4 / Version 2
Размер файла : 3,93 Гбайт
Продолжительность : 1 ч. 41 м.
Режим общего битрейта : Переменный
Общий поток : 5552 Кбит/сек
Дата кодирования : UTC 2018-06-03 08:34:10
Программа кодирования : mkvmerge v21.0.0 ('Tardigrades Will Inherit The Earth') 64-bit
Библиотека кодирования : libebml v1.3.5 + libmatroska v1.4.8
Видео
Идентификатор : 1
Формат : AVC
Формат/Информация : Advanced Video Codec
Профиль формата : High@L4
Настройки формата : CABAC / 4 Ref Frames
Параметр CABAC формата : Да
Параметр RefFrames формата : 4 кадра
Идентификатор кодека : V_MPEG4/ISO/AVC
Продолжительность : 1 ч. 41 м.
Вид битрейта : Переменный
Битрейт : 5359 Кбит/сек
Максимальный битрейт : 15,0 Мбит/сек
Ширина : 1920 пикселей
Высота : 800 пикселей
Соотношение сторон : 2,40:1
Режим частоты кадров : Постоянный
Частота кадров : 23,976 (24000/1001) кадра/сек
Цветовое пространство : YUV
Субдискретизация насыщенности : 4:2:0
Битовая глубина : 8 бит
Тип развёртки : Прогрессивная
Бит/(Пиксели*Кадры) : 0.146
Размер потока : 3,79 Гбайт (97%)
Язык : English
Default : Да
Forced : Нет
Цветовой диапазон : Limited
Основные цвета : BT.709
Характеристики трансфера : BT.709
Коэффициенты матрицы : BT.709
Аудио
Идентификатор : 2
Формат : AC-3
Формат/Информация : Audio Coding 3
Идентификатор кодека : A_AC3
Продолжительность : 1 ч. 41 м.
Вид битрейта : Постоянный
Битрейт : 192 Кбит/сек
Каналы : 2 канала
Расположение каналов : Front: L R
Частота : 48,0 КГц
Частота кадров : 31,250 кадров/сек (1536 SPF)
Битовая глубина : 16 бит
Метод сжатия : С потерями
Размер потока : 139 Мбайт (3%)
Заголовок : MVO (HDRezka Studio)
Язык : Russian
ServiceKind/String : Complete Main
Default : Да
Forced : Нет
Текст
Идентификатор : 3
Формат : UTF-8
Идентификатор кодека : S_TEXT/UTF8
Идентификатор кодека/Информация : UTF-8 Plain Text
Продолжительность : 1 ч. 33 м.
Битрейт : 64 бит/сек
ElementCount : 828
Размер потока : 44,2 Кбайт (0%)
Язык : Russian
Default : Нет
Forced : Нет
Download / Скачать

Хотите скачать бесплатно? Зарегистрируйтесь на сайте (ссылка на регистрацию). Pirat.ca - самый быстрый торрент трекер в рунете!

Как скачивать  ·   Что такое торрент  ·   Рейтинг и ограничения

v230v

Морской Волк

Пост 04-Июн-2018 16:21 (спустя 1 день 1 час)

[Q] 

спасибо за фильм
[Профиль]  [ЛС] 
Показать сообщения:    
Ответить на тему

Текущее время: Сегодня 14:57

Часовой пояс: GMT + 4



Вы не можете начинать темы
Вы не можете отвечать на сообщения
Вы не можете редактировать свои сообщения
Вы не можете удалять свои сообщения
Вы не можете голосовать в опросах
Вы не можете прикреплять файлы к сообщениям
Вы не можете скачивать файлы

Майнать ▼