Опасный бизнес / Gringo (Нэш Эдгертон / Nash Edgerton) [2018 г., Боевик, комедия, криминал, BDRip, 720p] Dub

Ответить на тему
 
Автор
Сообщение

Пост 04-Июн-2018 12:59

[Q] 

AlexDjas

Флибустьер

--Опасный бизнес / Gringo -- Производство: Австралия, США
Год выпуска: 2018 г.
Жанр: Боевик, комедия, криминал
Продолжительность: 01:50:38
Мировая премьера: 8 марта 2018
Российская премьера: 19 апреля 2018, «Вольга»
Перевод: Профессиональный (полное дублирование) [iTunes]
Режиссёр: Нэш Эдгертон / Nash Edgerton--В ролях: Джоэл Эдгертон, Шарлиз Терон, Дэвид Ойелоуо, Тэнди Ньютон, Башир Салахуддин, Гленн Кубота, Мелони Диас, Аманда Сайфред, Гарри Тредэвэй, Тео Таплитц--Описание: Дерзкая длинноногая блондинка — она идеально подходит для опасного бизнеса. Однажды одному из ее подчиненных становится известна уникальная формула, за которой гоняется весь мир. Он решает инсценировать собственное похищение и потребовать выкуп у компании. Но для корпорации он предпочтительнее мертвый, чем живой.-- Качество видео: BDRip
Контейнер: MKV
Стандарт разрешения: 720p
Видео кодек: MPEG4 AVC
Аудио кодек: AC3
Видео: AVC/H.264, 1280x536, ~4500 Kbps, 23.976 fps
Аудио: 48 kHz, AC3 Dolby Digital, 3/2 (L,C,R,l,r) + LFE ch, ~384 kbps
Cубтитры: отсутствуют
Общее
Уникальный идентификатор : 324079710294538570381569760022899946247 (0xF3CF7B5A070429DF441F3704F63F7307)
Полное имя : D:\торрент\Gringo_2018_BDRip_720p[pirat.ca].mkv
Формат : Matroska
Версия формата : Version 4 / Version 2
Размер файла : 3,78 Гбайт
Продолжительность : 1 ч. 50 м.
Общий поток : 4886 Кбит/сек
Название фильма : Gringo 2018
Дата кодирования : UTC 2018-06-04 06:45:30
Программа кодирования : mkvmerge v23.0.0 ('The Bride Said No') 64-bit
Библиотека кодирования : libebml v1.3.6 + libmatroska v1.4.9
Видео
Идентификатор : 1
Формат : AVC
Формат/Информация : Advanced Video Codec
Профиль формата : High@L4.1
Настройки формата : CABAC / 12 Ref Frames
Параметр CABAC формата : Да
Параметр RefFrames формата : 12 кадров
Идентификатор кодека : V_MPEG4/ISO/AVC
Продолжительность : 1 ч. 50 м.
Битрейт : 4500 Кбит/сек
Ширина : 1280 пикселей
Высота : 536 пикселей
Соотношение сторон : 2,40:1
Режим частоты кадров : Постоянный
Частота кадров : 23,976 (24000/1001) кадра/сек
Цветовое пространство : YUV
Субдискретизация насыщенности : 4:2:0
Битовая глубина : 8 бит
Тип развёртки : Прогрессивная
Бит/(Пиксели*Кадры) : 0.274
Размер потока : 3,48 Гбайт (92%)
Заголовок : Gringo 2018
Библиотека кодирования : x264 core 142 r2431+42 c69a006 tMod [8-bit@all X86_64]
Настройки программы : cabac=1 / ref=12 / deblock=1:-3:-3 / analyse=0x3:0x133 / me=umh / subme=11 / psy=1 / fade_compensate=0.00 / psy_rd=1.05:0.00 / mixed_ref=1 / me_range=48 / chroma_me=1 / trellis=2 / 8x8dct=1 / cqm=0 / deadzone=21,11 / fast_pskip=0 / chroma_qp_offset=-2 / threads=16 / lookahead_threads=2 / sliced_threads=0 / nr=0 / decimate=0 / interlaced=0 / bluray_compat=0 / constrained_intra=0 / fgo=0 / bframes=9 / b_pyramid=2 / b_adapt=2 / b_bias=0 / direct=3 / weightb=1 / open_gop=0 / weightp=2 / keyint=240 / keyint_min=24 / scenecut=40 / intra_refresh=0 / rc_lookahead=0 / rc=2pass / mbtree=0 / bitrate=4500 / ratetol=1.0 / qcomp=0.70 / qpmin=0:0:0 / qpmax=69:69:69 / qpstep=4 / cplxblur=20.0 / qblur=0.5 / vbv_maxrate=50000 / vbv_bufsize=30000 / nal_hrd=none / filler=0 / ip_ratio=1.20 / pb_ratio=1.20 / aq=3:0.80 / aq-sensitivity=10.00 / aq-factor=1.00:1.00:1.00 / aq2=0 / aq3=0
Язык : English
Default : Да
Forced : Нет
Аудио
Идентификатор : 2
Формат : AC-3
Формат/Информация : Audio Coding 3
Идентификатор кодека : A_AC3
Продолжительность : 1 ч. 50 м.
Вид битрейта : Постоянный
Битрейт : 384 Кбит/сек
Каналы : 6 каналов
Расположение каналов : Front: L C R, Side: L R, LFE
Частота : 48,0 КГц
Частота кадров : 31,250 кадров/сек (1536 SPF)
Битовая глубина : 16 бит
Метод сжатия : С потерями
Размер потока : 304 Мбайт (8%)
Заголовок : iTunes
Язык : Russian
ServiceKind/String : Complete Main
Default : Да
Forced : Да
Download / Скачать

Хотите скачать бесплатно? Зарегистрируйтесь на сайте (ссылка на регистрацию). Pirat.ca - самый быстрый торрент трекер в рунете!

Как скачивать  ·   Что такое торрент  ·   Рейтинг и ограничения

v230v

Морской Волк

Пост 04-Июн-2018 16:08 (спустя 3 часа)

[Q] 

спасибо за фильм, искал!!!
[Профиль]  [ЛС] 

Пост 04-Июн-2018 21:17 (спустя 5 часов)

Топик был перенесен из форума Новинки (HD|DVD|BD| TV|SAT|PDTV| - Rips) в форум Новинки (BD/WEB-DL/HDTV/DVD)
gross1978
 

ГИППАРРД

Корсар

2

Пост 05-Июн-2018 10:20 (спустя 18 часов)

[Q] 

Название веселое и также посмотрим что ждать от фильма!!!
[Профиль]  [ЛС] 

SM 96

Легенда

Пост 05-Июн-2018 18:34 (спустя 8 часов)

[Q] 

Лови бочку Пиратка рулит!
[Профиль]  [ЛС] 

Hippopotam

Флибустьер

Пост 16-Июн-2018 03:13 (спустя 10 дней)

[Q] 

В целом, бодренький и симпатишный представитель своего жанра. Последние несколько минут развеселили и поспособствовали дать фильму положительный вердикт Спасибо!!! Лови бочку
[Профиль]  [ЛС] 
Показать сообщения:    
Ответить на тему

Текущее время: Сегодня 14:57

Часовой пояс: GMT + 4



Вы не можете начинать темы
Вы не можете отвечать на сообщения
Вы не можете редактировать свои сообщения
Вы не можете удалять свои сообщения
Вы не можете голосовать в опросах
Вы не можете прикреплять файлы к сообщениям
Вы не можете скачивать файлы

Майнать ▼