Жажда смерти / Death Wish (Элай Рот / Eli Roth) [2018 г., криминал, детектив, боевик, триллер, BDRip, 720p] Dub Sub (Eng) + Original (Eng)

Ответить на тему
 
Автор
Сообщение

Пост 05-Июн-2018 16:50

[Q] 

SwordFish

Морской Волк

-Жажда смерти / Death Wish«Он мстит бодро, весело и со вкусом»-- Производство: США, Metro-Goldwyn-Mayer (MGM), Paramount Pictures
Год выпуска: 2018 г.
Жанр: криминал, детектив, боевик, триллер
Продолжительность: 01:46:03
Перевод: Профессиональный (полное дублирование) [Line без рекламы]
Оригинальный аудиопоток: английский
Режиссёр: Элай Рот / Eli Roth-В ролях: Брюс Уиллис, Винсент Д`Онофрио, Элизабет Шу, Камила Морроне, Дин Норрис, Бо Напп, Кимберли Элиз, Лен Кариу, Джек Кеси, Ронни Джин Блевинс-Описание: Пол Керси - хирург, привыкший вытаскивать людей с того света после криминальных разборок. Но после того, как его жена и дочь становятся жертвами уличной банды, а полиция бездействует, он берет карающий меч правосудия в свои руки. Видео изобретательных убийств преступников покоряют интернет-топы, а среди жителей города расходятся слухи о неуловимом народном мстителе, которому теперь принадлежит весь город. Он мстит бодро, весело и со вкусом.-
Качество видео: BDRip
Контейнер: MKV
Стандарт разрешения: 720p
Видео кодек: MPEG4 AVC
Аудио кодек: AC3, DTS
Видео: MPEG-4 AVC, 5000 Кбит/с, 1280x534, 23.976 Кадр/с
Аудио #1: Rus (AC3, 2 ch, 192 Кбит/с)
Аудио #2: Eng (DTS, 6 ch, 1510 Кбит/с)
Cубтитры: английские
Формат субтитров: softsub (SRT)
General
Unique ID : 245091692253908960981978723521873951433 (0xB862F1636AC68FFBBAB82F6A2CD1BAC9)
Complete name : D:\Films\Death.Wish.2018.bdriP.72Op.mkv
Format : Matroska
Format version : Version 2
File size : 4.99 GiB
Duration : 1 h 46 min
Overall bit rate : 6 698 kb/s
Movie name : Death Wish 2018 от werecut'a
Encoded date : UTC 2018-05-27 00:01:15
Writing application : mkvmerge v2.9.9 ('Tutu') built on Nov 25 2009 21:13:32
Writing library : libebml v0.7.9 + libmatroska v0.8.1
Video
ID : 1
Format : AVC
Format/Info : Advanced Video Codec
Format profile : High@L4.1
Format settings : CABAC / 12 Ref Frames
Format settings, CABAC : Yes
Format settings, ReFrames : 12 frames
Codec ID : V_MPEG4/ISO/AVC
Duration : 1 h 46 min
Bit rate : 5 000 kb/s
Width : 1 280 pixels
Height : 534 pixels
Display aspect ratio : 2.40:1
Frame rate mode : Constant
Frame rate : 23.976 (24000/1001) FPS
Color space : YUV
Chroma subsampling : 4:2:0
Bit depth : 8 bits
Scan type : Progressive
Bits/(Pixel*Frame) : 0.305
Stream size : 3.63 GiB (73%)
Title : Medusa @ HDChina
Writing library : x264 core 148 r2665kMod a01e339
Encoding settings : cabac=1 / ref=12 / deblock=1:-3:-3 / analyse=0x3:0x133 / me=umh / subme=11 / psy=1 / fade_compensate=0.00 / psy_rd=1.05:0.00 / mixed_ref=1 / me_range=32 / chroma_me=1 / trellis=2 / 8x8dct=1 / cqm=0 / deadzone=21,11 / fast_pskip=0 / chroma_qp_offset=-2 / threads=17 / lookahead_threads=2 / sliced_threads=0 / nr=0 / decimate=0 / interlaced=0 / bluray_compat=0 / constrained_intra=0 / fgo=0 / bframes=8 / b_pyramid=2 / b_adapt=2 / b_bias=0 / direct=3 / weightb=1 / open_gop=0 / weightp=2 / keyint=240 / keyint_min=24 / scenecut=40 / intra_refresh=0 / rc=2pass / mbtree=0 / bitrate=5000 / ratetol=1.0 / qcomp=0.70 / qpmin=0 / qpmax=69 / qpstep=4 / cplxblur=20.0 / qblur=0.5 / ip_ratio=1.20 / pb_ratio=1.20 / aq=3:0.85
Language : English
Default : No
Forced : No
Audio #1
ID : 2
Format : AC-3
Format/Info : Audio Coding 3
Codec ID : A_AC3
Duration : 1 h 46 min
Bit rate mode : Constant
Bit rate : 192 kb/s
Channel(s) : 2 channels
Channel positions : Front: L R
Sampling rate : 48.0 kHz
Frame rate : 31.250 FPS (1536 SPF)
Bit depth : 16 bits
Compression mode : Lossy
Stream size : 147 MiB (3%)
Language : Russian
Service kind : Complete Main
Default : Yes
Forced : Yes
Audio #2
ID : 3
Format : DTS
Format/Info : Digital Theater Systems
Codec ID : A_DTS
Duration : 1 h 46 min
Bit rate mode : Constant
Bit rate : 1 509 kb/s
Channel(s) : 6 channels
Channel positions : Front: L C R, Side: L R, LFE
Sampling rate : 48.0 kHz
Frame rate : 93.750 FPS (512 SPF)
Bit depth : 24 bits
Compression mode : Lossy
Stream size : 1.12 GiB (23%)
Language : English
Default : No
Forced : No
Text
ID : 4
Format : UTF-8
Codec ID : S_TEXT/UTF8
Codec ID/Info : UTF-8 Plain Text
Language : English
Default : No
Forced : No
Menu
00:00:00.000 : en:00:00:00.000
00:05:39.089 : en:00:05:39.089
00:08:51.239 : en:00:08:51.239
00:11:55.798 : en:00:11:55.798
00:19:12.860 : en:00:19:12.860
00:24:34.139 : en:00:24:34.139
00:28:37.174 : en:00:28:37.174
00:32:45.964 : en:00:32:45.964
00:36:15.840 : en:00:36:15.840
00:43:49.168 : en:00:43:49.168
00:47:10.411 : en:00:47:10.411
00:53:49.518 : en:00:53:49.518
00:56:56.330 : en:00:56:56.330
01:00:27.082 : en:01:00:27.082
01:07:55.154 : en:01:07:55.154
01:11:16.564 : en:01:11:16.564
01:15:52.256 : en:01:15:52.256
01:19:23.926 : en:01:19:23.926
01:22:41.415 : en:01:22:41.415
01:25:43.889 : en:01:25:43.889
01:28:20.837 : en:01:28:20.837
01:31:24.813 : en:01:31:24.813
01:37:14.537 : en:01:37:14.537
01:40:07.585 : en:01:40:07.585
Download / Скачать

Хотите скачать бесплатно? Зарегистрируйтесь на сайте (ссылка на регистрацию). Pirat.ca - самый быстрый торрент трекер в рунете!

Как скачивать  ·   Что такое торрент  ·   Рейтинг и ограничения

pvm

Флибустьер

Пост 06-Июн-2018 02:34 (спустя 9 часов)

[Q] 

Ну Брюс, не подведи
[Профиль]  [ЛС] 

jofrei53

Флибустьер

Пост 06-Июн-2018 10:51 (спустя 8 часов)

[Q] 

Спасибо! Заинтересовало... Автору респект!!! Лови бочку
[Профиль]  [ЛС] 

koljan-2008

Флибустьер

5

Пост 06-Июн-2018 14:55 (спустя 4 часа)

[Q] 

Посмотрим вечерком! Раздающему спасибо! Лови бочку

_________________
Нужно лишь верить в мечту. Искренне верить! И тогда всё получится!
[Профиль]  [ЛС] 

Pana

Корсар

Пост 06-Июн-2018 17:57 (спустя 3 часа)

[Q] 

Мне понравилось , Ку три раза
[Профиль]  [ЛС] 

SwordFish ®

Морской Волк

1038

Пост 06-Июн-2018 18:15 (спустя 18 минут)

[Q] 

На фоне последних шлаковых фильмов в которых снимался Брюс, этот просто очень даже хорош. Мне лично тоже понравился.
[Профиль]  [ЛС] 

алексейка121212

Штурман

Пост 06-Июн-2018 19:12 (спустя 56 минут)

[Q] 

хороший фильм. качать.
[Профиль]  [ЛС] 

Skull36

Лоцман

Пост 06-Июн-2018 21:32 (спустя 2 часа 20 минут)

[Q] 

Спасибо!!! Лови бочку
[Профиль]  [ЛС] 

lightmaster

Гроза морей

Пост 06-Июн-2018 22:19 (спустя 46 минут)

[Q] 

Сразили комменты-качаю!!! Раздающему респект!
[Профиль]  [ЛС] 

clark

Флибустьер

Пост 06-Июн-2018 23:10 (спустя 51 минута)

[Q] 

спасибо глянем!!!!

_________________
Последним смеётся тот, кто стреляет первым.
[Профиль]  [ЛС] 

Кристина119

Гроза морей

Пост 07-Июн-2018 11:03 (спустя 11 часов)

[Q] 

Спасибо, Брюс... Лови бочку
[Профиль]  [ЛС] 

Gari4

Флибустьер

Пост 08-Июн-2018 01:49 (спустя 14 часов)

[Q] 

Если бы действия были в России, то в конце бы наша полиция такой бы откат запросила .. (ну конечно если вырезать не легальность боевого оружия на территории страны)
А так фильм годный. Лови бочку

_________________
РЕБЯТ!! Подпишитесь на канал! Вам все равно, а мне приятно))
https://www.youtube.com/channel/UCHdnAvKKhkxeJvg3DQ...ew_as=subscriber
[Профиль]  [ЛС] 

tyulen29

Шкипер

Пост 08-Июн-2018 18:16 (спустя 16 часов)

[Q] 

Брюс молодчик Мне понравилось Лови бочку
[Профиль]  [ЛС] 

MrP

Штурман

Пост 08-Июн-2018 23:14 (спустя 4 часа)

[Q] 

Спасибки Лови бочку
[Профиль]  [ЛС] 

Пират Пиратович

334

Пост 08-Июн-2018 23:23 (спустя 8 минут)

[Q] 

Раздающему респект!
[Профиль]  [ЛС] 

baltimor30

Корсар

Пост 09-Июн-2018 10:39 (спустя 11 часов)

[Q] 

Относительно неплохо, Всем качать!!!
[Профиль]  [ЛС] 

Golsergio

Гроза морей

Пост 10-Июн-2018 14:01 (спустя 1 день 3 часа)

[Q] 

Заценимс.... Автору респект!!! Лови бочку
[Профиль]  [ЛС] 

grosboy

Гроза морей

Пост 11-Июн-2018 00:38 (спустя 10 часов)

[Q] 

Отличный фильм! Рекомендую...

_________________
Щастье есть - его не может не быть...
[Профиль]  [ЛС] 

serg82od

Лоцман

Пост 11-Июн-2018 01:13 (спустя 35 минут)

[Q] 

Нормальный фильм
[Профиль]  [ЛС] 

левка

Корсар

Пост 12-Июн-2018 00:03 (спустя 22 часа)

[Q] 

SwordFish, Спасибо!!!
[Профиль]  [ЛС] 

tretru

Лоцман

Пост 13-Июн-2018 21:55 (спустя 1 день 21 час)

[Q] 

качать и смотреть, а не на оборот)))
[Профиль]  [ЛС] 

msss

Корсар

Пост 17-Июн-2018 16:27 (спустя 3 дня)

[Q] 

Одобрямс!
Одобряемссс!!!
[Профиль]  [ЛС] 

ketzer

Корсар

Пост 28-Июн-2018 15:08 (спустя 10 дней)

[Q] 

вы меня, дурака, извините, но на кой хрен прощупывать сонную артерию, когда даже приборы показывают, что сердце не бьётся, т.е. электрического импульса в сердце нет?
[Профиль]  [ЛС] 

Sector_X

311

Пост 11-Июл-2018 01:30 (спустя 12 дней)

[Q] 

Всем качать!!! Зуб даю...

_________________

[Профиль]  [ЛС] 
Показать сообщения:    
Ответить на тему

Текущее время: Сегодня 23:27

Часовой пояс: GMT + 4



Вы не можете начинать темы
Вы не можете отвечать на сообщения
Вы не можете редактировать свои сообщения
Вы не можете удалять свои сообщения
Вы не можете голосовать в опросах
Вы не можете прикреплять файлы к сообщениям
Вы не можете скачивать файлы

Майнать ▼