Тренер (Данила Козловский) [2018 г., Драма, Спорт, WEB-DL, 1080p][iTunes]

Ответить на тему
 
Автор
Сообщение

Пост 14-Июн-2018 08:57

[Q] 

AlexDjas

Гроза морей

--Тренер-- Производство: Россия
Режиссёр: Данила Козловский
Жанр: Драма, Спорт
Год выпуска: 2018 г.
Продолжительность: 02:12:22
Российская премьера: 19 апреля 2018, «Централ Партнершип»
В ролях: Данила Козловский, Владимир Ильин, Андрей Смоляков, Ольга Зуева, Ирина Горбачева, Виктор Вержбицкий, Мария Лобанова, Павел Ворожцов, Игорь Гордин, Александр Ильин мл.--Описание: Футболист национальной сборной Юрий Столешников в ответственный момент не забивает пенальти. После досадной ошибки Столешников покидает сборную, завершает карьеру и становится тренером маленькой провинциальной команды. Именно с этим клубом Столешникову предстоит совершить чудо и вновь поверить в себя.-- Качество видео: WEB-DL
Контейнер: MKV
Стандарт разрешения: 1080p
Видео кодек: MPEG4 AVC
Аудио кодек: AC3
Видео: H.264/AVC, 1920x804 (2.40:1), ~ 4690 kbps, 25 fps
Аудио: 48 kHz, AC3 Dolby Digital, 3/2 (L,C,R,l,r) + LFE ch, ~384 kbps
Cубтитры: отсутствуют
Общее
Уникальный идентификатор : 143516317467736593652077075176187396327 (0x6BF83CC1C90D24223939BBD13CF680E7)
Полное имя : D:\pirat\Trener_2018_WEB-DL_1080p[pirat.ca].mkv
Формат : Matroska
Версия формата : Version 4 / Version 2
Размер файла : 4,69 Гбайт
Продолжительность : 2 ч. 12 м.
Общий поток : 5076 Кбит/сек
Название фильма : Trener_2018
Дата кодирования : UTC 2018-06-14 04:30:35
Программа кодирования : mkvmerge v24.0.0 ('Beyond The Pale') 64-bit
Библиотека кодирования : libebml v1.3.6 + libmatroska v1.4.9
Видео
Идентификатор : 1
Формат : AVC
Формат/Информация : Advanced Video Codec
Профиль формата : [email protected]
Настройки формата : CABAC / 5 Ref Frames
Параметр CABAC формата : Да
Параметр RefFrames формата : 5 кадров
Идентификатор кодека : V_MPEG4/ISO/AVC
Продолжительность : 2 ч. 12 м.
Битрейт : 4690 Кбит/сек
Ширина : 1920 пикселей
Высота : 804 пикселя
Соотношение сторон : 2,40:1
Режим частоты кадров : Постоянный
Частота кадров : 25,000 кадров/сек
Частота кадров в оригинале : 50,000 кадров/сек
Цветовое пространство : YUV
Субдискретизация насыщенности : 4:2:0
Битовая глубина : 8 бит
Тип развёртки : Прогрессивная
Бит/(Пиксели*Кадры) : 0.122
Размер потока : 4,34 Гбайт (92%)
Заголовок : Trener_2018
Язык : Russian
Default : Да
Forced : Нет
Цветовой диапазон : Limited
Основные цвета : BT.709
Характеристики трансфера : BT.709
Коэффициенты матрицы : BT.709
Аудио
Идентификатор : 2
Формат : AC-3
Формат/Информация : Audio Coding 3
Идентификатор кодека : A_AC3
Продолжительность : 2 ч. 12 м.
Вид битрейта : Постоянный
Битрейт : 384 Кбит/сек
Каналы : 6 каналов
Расположение каналов : Front: L C R, Side: L R, LFE
Частота : 48,0 КГц
Частота кадров : 31,250 кадров/сек (1536 SPF)
Битовая глубина : 16 бит
Метод сжатия : С потерями
Размер потока : 364 Мбайт (8%)
Заголовок : iTunes
Язык : Russian
ServiceKind/String : Complete Main
Default : Да
Forced : Нет
Download / Скачать

Хотите скачать бесплатно? Зарегистрируйтесь на сайте (ссылка на регистрацию). Pirat.ca - самый быстрый торрент трекер в рунете!

Как скачивать  ·   Что такое торрент  ·   Рейтинг и ограничения



Последний раз редактировалось: AlexDjas (2018-06-14 09:13), всего редактировалось 1 раз

Alingva

Легенда

493

Пост 14-Июн-2018 09:02 (спустя 5 минут)

[Q] 

Спасибо!!! Посмотрим-с!

_________________
Если Вам кажется что у Вас нимб над головой, то не обращайте на него внимание - это просто мания величия!
[Профиль]  [ЛС] 

AlexDjas ®

Гроза морей

6498

Пост 14-Июн-2018 09:15 (спустя 12 минут)

[Q] 

827502 Спасибо!!! Посмотрим-с!
Приятного просмотра!!! Болеем за наших!!!

_________________
- Один терапевт - это 1024 гигапевта, или 1048576 мегапевтов!
[Профиль]  [ЛС] 

Pana

Корсар

Пост 14-Июн-2018 17:27 (спустя 8 часов)

[Q] 

ОЛЕ.... Спасибо!!! Лови бочку
[Профиль]  [ЛС] 

moscowpan

Гроза морей

4445

Пост 14-Июн-2018 22:30 (спустя 5 часов)

[Q] 

Супер! посмотрим, раз 5:0 сегодня

_________________
[Профиль]  [ЛС] 

Кристина119

Гроза морей

Пост 15-Июн-2018 00:19 (спустя 1 час 48 минут)

[Q] 

Качаем в продолжение ЧМ Лови бочку
[Профиль]  [ЛС] 

gosha766

Шкипер

Пост 15-Июн-2018 07:21 (спустя 7 часов)

[Q] 

Благодарю.
Ждали.
[Профиль]  [ЛС] 

kinstintin

Легенда

Пост 02-Июл-2018 21:04 (спустя 17 дней)

[Q] 

благодарствую)
[Профиль]  [ЛС] 

alersander

Корсар

Пост 08-Июл-2018 22:19 (спустя 6 дней)

[Q] 

Спасибо Лови бочку
[Профиль]  [ЛС] 

Grosso2020

Морской Волк

Пост 12-Июл-2018 22:18 (спустя 3 дня)

[Q] 

Опять козловский и тот лысый WTF!
[Профиль]  [ЛС] 

exelero07

Гроза морей

Пост 20-Июл-2018 23:25 (спустя 8 дней)

[Q] 

интересный сюжет и сама история
[Профиль]  [ЛС] 
Показать сообщения:    
Ответить на тему

Текущее время: Сегодня 22:46

Часовой пояс: GMT + 4



Вы не можете начинать темы
Вы не можете отвечать на сообщения
Вы не можете редактировать свои сообщения
Вы не можете удалять свои сообщения
Вы не можете голосовать в опросах
Вы не можете прикреплять файлы к сообщениям
Вы не можете скачивать файлы

Майнать ▼