Конченая / Terminal (Вон Стайн / Vaughn Stein) [2018 г., триллер, драма, криминал, WEB-DL, 1080p] Dub

Ответить на тему
 
Автор
Сообщение

Пост 15-Июн-2018 10:26

[Q] 

AlexDjas

Гроза морей

--Конченая / Terminal--«Ребятки, я вернулась!»-- Производство: Ирландия, Великобритания, Гонконг, Венгрия, США
Год выпуска: 2018 г.
Жанр: триллер, драма, криминал
Продолжительность: 01:35:32
Мировая премьера: 10 мая 2018
Российская премьера: 17 мая 2018, «Централ Партнершип»
Перевод: Профессиональный (полное дублирование) [iTunes]
Режиссёр: Вон Стайн / Vaughn Stein--В ролях: Марго Робби, Саймон Пегг, Декстер Флетчер, Майк Майерс, Макс Айронс, Катарина Час, Ник Моран, Лес Лавдей, Джордан Данн, Мэттью Льюис--Описание: Фильм окунет вас в опасный мир английского криминала. В центре истории — роковая особа Энни, предстающая в разных амплуа. Она ведет сложную игру с несколькими мужчинами, которых — на первый взгляд — ничто не связывает. Стравливая их друг с другом, она преследует свою жестокую цель.-- Качество видео: WEB-DL
Контейнер: MKV
Стандарт разрешения: 1080p
Видео кодек: MPEG4 AVC
Аудио кодек: AC3
Видео: H.264/AVC, 1912x1072, 5 218 Kbps, 23.976 fps
Аудио: 48 kHz, AC3 Dolby Digital, 3/2 (L,C,R,l,r) + LFE ch, ~384 kbps
Cубтитры: отсутствуют
Общее
Уникальный идентификатор : 93848657281524602546285252557821733652 (0x469A980BCA42AE8765B2E3879FC46B14)
Полное имя : D:\Фильмы\Terminal_2018_WEB-DL_1080[pirat.ca].mkv
Формат : Matroska
Версия формата : Version 4 / Version 2
Размер файла : 3,74 Гбайт
Продолжительность : 1 ч. 35 м.
Общий поток : 5604 Кбит/сек
Название фильма : Terminal_2018
Дата кодирования : UTC 2018-06-15 05:46:58
Программа кодирования : mkvmerge v24.0.0 ('Beyond The Pale') 64-bit
Библиотека кодирования : libebml v1.3.6 + libmatroska v1.4.9
Видео
Идентификатор : 1
Формат : AVC
Формат/Информация : Advanced Video Codec
Профиль формата : [email protected]
Настройки формата : CABAC / 4 Ref Frames
Параметр CABAC формата : Да
Параметр RefFrames формата : 4 кадра
Идентификатор кодека : V_MPEG4/ISO/AVC
Продолжительность : 1 ч. 35 м.
Битрейт : 5218 Кбит/сек
Ширина : 1912 пикселей
Высота : 1072 пикселя
Соотношение сторон : 16:9
Режим частоты кадров : Постоянный
Частота кадров : 23,976 (23976/1000) кадра/сек
Частота кадров в оригинале : 47,952 (48000/1001) кадров/сек
Цветовое пространство : YUV
Субдискретизация насыщенности : 4:2:0
Битовая глубина : 8 бит
Тип развёртки : Прогрессивная
Бит/(Пиксели*Кадры) : 0.106
Размер потока : 3,48 Гбайт (93%)
Заголовок : Terminal_2018
Язык : English
Default : Да
Forced : Нет
Цветовой диапазон : Limited
Основные цвета : BT.709
Характеристики трансфера : BT.709
Коэффициенты матрицы : BT.709
Аудио
Идентификатор : 2
Формат : AC-3
Формат/Информация : Audio Coding 3
Идентификатор кодека : A_AC3
Продолжительность : 1 ч. 35 м.
Вид битрейта : Постоянный
Битрейт : 384 Кбит/сек
Каналы : 6 каналов
Расположение каналов : Front: L C R, Side: L R, LFE
Частота : 48,0 КГц
Частота кадров : 31,250 кадров/сек (1536 SPF)
Битовая глубина : 16 бит
Метод сжатия : С потерями
Задержка видео : -42 мс.
Размер потока : 262 Мбайт (7%)
Заголовок : iTunes
Язык : Russian
ServiceKind/String : Complete Main
Default : Да
Forced : Нет
Download / Скачать

Хотите скачать бесплатно? Зарегистрируйтесь на сайте (ссылка на регистрацию). Pirat.ca - самый быстрый торрент трекер в рунете!

Как скачивать  ·   Что такое торрент  ·   Рейтинг и ограничения

v230v

Корсар

Пост 15-Июн-2018 11:35 (спустя 1 час 8 минут)

[Q] 

спасибо, посмотрим!
[Профиль]  [ЛС] 

zmaksimz

Корсар

Пост 15-Июн-2018 11:36 (спустя 29 секунд)

[Q] 

Ну так себе, на 3+
[Профиль]  [ЛС] 

Alingva

Легенда

488

Пост 15-Июн-2018 11:54 (спустя 18 минут)

[Q] 

Да уж и название ...

_________________
Если Вам кажется что у Вас нимб над головой, то не обращайте на него внимание - это просто мания величия!
[Профиль]  [ЛС] 

redfield

Морской Волк

Пост 16-Июн-2018 13:07 (спустя 1 день 1 час)

[Q] 

Копченая.......
[Профиль]  [ЛС] 

jofrei53

Флибустьер

Пост 16-Июн-2018 21:16 (спустя 8 часов)

[Q] 

Заинтересовало.... Спасибо! Автору респект!!!
[Профиль]  [ЛС] 

alersander

Корсар

Пост 08-Июл-2018 22:13 (спустя 22 дня)

[Q] 

Кто то посмотрел? отпешитесь Лови бочку
[Профиль]  [ЛС] 

exelero07

Гроза морей

Пост 21-Июл-2018 00:00 (спустя 12 дней)

[Q] 

весь фильм скукота и только в конце классная развязка
На форуме  [Профиль]  [ЛС] 
Показать сообщения:    
Ответить на тему

Текущее время: Сегодня 04:34

Часовой пояс: GMT + 4



Вы не можете начинать темы
Вы не можете отвечать на сообщения
Вы не можете редактировать свои сообщения
Вы не можете удалять свои сообщения
Вы не можете голосовать в опросах
Вы не можете прикреплять файлы к сообщениям
Вы не можете скачивать файлы

Майнать ▼